<?xml version="1.0" standalone="no"?>
<!DOCTYPE svg PUBLIC "-//W3C//DTD SVG 1.1//EN" "http://www.w3.org/Graphics/SVG/1.1/DTD/svg11.dtd" >
<!--
2013-9-30: Created.
-->
<svg>
<metadata>
Created by iconfontYI
</metadata>
<defs>

<font id="iconfontYI" horiz-adv-x="1024" >
  <font-face
    font-family="iconfontYI"
    font-weight="500"
    font-stretch="normal"
    units-per-em="1024"
    ascent="896"
    descent="-128"
  />
    <missing-glyph />
    
    <glyph glyph-name="jingpintuijian" unicode="&#58893;" d="M955.18355911 532.8348349600001l-407.88514133-550.62133571c-7.50751289-11.64963082-20.41325037-18.68018725-34.275328-18.68018725s-26.76902875 7.03177008-34.27654163 18.68018725l-407.88514133 550.62133571c-8.0075283 12.4069357-8.67381097 28.1598483-1.76219023 41.20636682l220.91093333 224.32730073c7.07060622 13.34385778 20.94239289 21.68756148 36.03751823 21.68756149l368.88636682 0c14.83783585 0 28.5202963-8.06578252 35.68920651-21.05040592l225.96934163-224.32730075c7.26964148-13.14482252 6.73321718-29.23755141-1.41266489-41.84352237zM511.24997689 74.06220325000004l155.72567229 460.48506311-309.22918873 0 153.50473007-460.48506311zM473.98669275 57.016775110000026l-159.18937127 477.53170489-194.55089778 0 353.74148267-477.53170489zM326.05009541 779.26718578l-200.82414933-203.9358957 194.31302637 0 152.9573831 203.93468207-146.44383288 0zM370.01382875 575.3349309600001l291.4228148 0-146.74238577 192.92099319-144.68042903-192.92099319zM694.93767585 779.26718578l-137.62074548 0 154.90768593-203.65554727-0.27913482-0.27913481 188.4075046 0-205.41652386 203.93468208zM710.311936 534.5484799999999l-164.18952533-485.53923319 359.68705422 485.53923319-195.49631526 0z"  horiz-adv-x="1024" />

    
    <glyph glyph-name="xiaolian" unicode="&#58895;" d="M512.000737 834.563684c-248.83986 0-450.564421-201.724561-450.564421-450.564421s201.724561-450.564421 450.564421-450.564421 450.564421 201.724561 450.564421 450.564421S760.840597 834.563684 512.000737 834.563684zM696.32 547.84c22.621582 0 40.96-18.338418 40.96-40.96s-18.338418-40.96-40.96-40.96c-22.621582 0-40.96 18.338418-40.96 40.96S673.698418 547.84 696.32 547.84zM327.68 547.84c22.621582 0 40.96-18.338418 40.96-40.96s-18.338418-40.96-40.96-40.96-40.96 18.338418-40.96 40.96S305.058418 547.84 327.68 547.84zM735.296107 231.43972c-9.452043-19.727413-21.934331-38.097762-37.099552-54.600888-15.000654-16.324559-32.403742-30.580241-51.725141-42.371347-39.896455-24.347571-86.367731-37.216959-134.390605-37.216959-48.099753 0-94.633664 12.907705-134.571383 37.327244-19.341049 11.825984-36.753716 26.121948-51.754615 42.490228-15.167186 16.549795-27.638421 34.968777-37.067621 54.745314-4.874869 10.224526-0.538159 22.464875 9.686367 27.339744 10.22428 4.874623 22.464629 0.537913 27.339498-9.686613 7.67693-16.10178 17.865349-31.135839 30.282055-44.684373 12.407864-13.538955 26.845551-25.38508 42.912207-35.20875 33.493077-20.479263 72.627857-31.303845 113.173492-31.303845 40.481282 0 79.563744 10.792651 113.02268 31.211491 16.051182 9.795669 30.481255 21.608881 42.88961 35.112221 12.416215 13.511445 22.613968 28.507187 30.310547 44.570404 4.894764 10.215192 17.142728 14.528077 27.358166 9.634049C735.87725 253.903367 740.190135 241.654666 735.296107 231.43972z"  horiz-adv-x="1024" />

    
    <glyph glyph-name="tuiguang" unicode="&#58939;" d="M512.39375 834C264.1203125 834 62.8296875 632.709375 62.8296875 384.421875c0-248.3296875 201.290625-449.6203125 449.578125-449.6203125C760.7234375-65.19843749999995 962 136.09218750000002 962 384.421875 962 632.709375 760.7234375 834 512.39375 834zM474.70625 319.59375l0-110.7984375c0 0-1.5890625-15.9328125-15.159375-17.55l-54.196875 0c0 0-11.1515625 2.41875-14.3578125 14.3578125L390.9921875 319.59375c0 0-102.0234375 15.159375-73.3359375 120.375 0 0 12.7546875 44.6484375 70.1578125 59.7796875l124.93125 0 0.2390625-180.16875L474.70625 319.5796875zM576.7296875 318.79218749999995l-39.853125 0L536.8765625 499.7484375l39.853125 0L576.7296875 318.79218749999995zM712.25 261.41718749999995c-3.99375-27.084375-24.7078125-17.55-24.7078125-17.55l-87.69375 57.403125L599.8484375 514.10625l89.26875 62.971875c19.940625 3.9796875 23.146875-18.3375 23.146875-18.3375L712.2640625 261.41718749999995z"  horiz-adv-x="1024" />

    
    <glyph glyph-name="yuandianxiao" unicode="&#59439;" d="M522.66666666 394.66666667m-160 0a2.5 2.5 0 1 1 320 0 2.5 2.5 0 1 1-320 0Z"  horiz-adv-x="1024" />

    
    <glyph glyph-name="xiazai5" unicode="&#58885;" d="M963.80444469-17.991111560000036l-162.06222188 162.06222187C864.92444469 218.47111125000004 903.11111094 314.75555531 903.11111094 420.01777781c0 235.64444438-191.02222219 426.66666656-426.66666657 426.66666657s-426.66666656-191.02222219-426.66666656-426.66666657 191.02222219-426.66666656 426.66666657-426.66666656c104.7822225 0 200.69333344 37.83111094 274.95111093 100.51555594l162.13333313-162.13333313c13.88444438-13.88444438 36.39111094-13.88444438 50.27555531 0C977.68888906-54.38222250000001 977.68888906-31.875555940000027 963.80444469-17.991111560000036zM476.44444438 64.46222250000005c-196.37333344 0-355.55555531 159.18222187-355.55555532 355.55555531s159.18222187 355.55555531 355.55555531 355.55555531 355.55555531-159.18222187 355.55555532-355.55555531S672.81777781 64.46222250000005 476.44444438 64.46222250000005z"  horiz-adv-x="1024" />

    
    <glyph glyph-name="icon34" unicode="&#58923;" d="M600.227414 322.581162c0 0 21.883403 32.679283 45.217854 96.813976 23.325241 64.10911 26.631544 99.334379 26.631544 99.334379l-184.003757 1.543146 0 62.825884 222.836181 1.543146 0 44.430932L488.073054 629.072625l0 101.143585-109.186771 0 0-101.143585-207.90512 0 0-44.430932 207.90512 1.497097 0-67.409273L212.111932 518.729517l0-35.224246 343.258854 0c0 0-3.756557-28.578896-16.915251-64.10911-13.127995-35.547611-26.712385-66.684772-26.712385-66.684772s-161.174819 56.431244-246.121514 56.431244c-84.930321 0-188.242292-34.144658-198.243063-133.132136-10.000771-99.020224 48.124044-152.632259 129.943514-172.413791 81.84403-19.766183 157.420309 0.252757 223.207641 32.443923 65.802682 32.177863 130.34465 105.319697 130.34465 105.319697l341.242941-165.733649c0 0 21.467941 32.412201 36.886095 62.495356 15.4509 30.097482 28.255531 64.416102 28.255531 64.416102L600.227414 322.581162zM248.076028 157.820678c-120.390951 0-145.701406 59.093886-145.701406 101.618399 0 42.47744 25.049512 88.656179 127.511115 95.381347 102.421694 6.677073 240.767576-72.591295 240.767576-72.591295S368.499725 157.820678 248.076028 157.820678z"  horiz-adv-x="1024" />

    
    <glyph glyph-name="dadianhua01" unicode="&#58915;" d="M303.875 742.12500029L303.875 727.7475002900001 303.875 742.12500029ZM736.36250029-61.139999999999986c-153.50249971 0-374.22 139.49250029-524.88749971 331.7175C93.67250029 420.89250029 44.4725 567.33749971 72.94249971 682.935 83.78 726.89250029 124.27250029 829.14 266.10499971 829.14c4.05749971 0 8.19749971-0.08250029 12.4274997-0.25499971l1.9725003-0.0675c16.23750029-0.56999971 50.01000029-1.755 67.1249997-52.8525 16.22999971-48.44999971 62.325-195.05999971 62.7900003-196.5375 2.51250029-7.99499971 0.36749971-16.72499971-5.5575-22.6575l-84.105-84.07500029c19.9575-46.10999971 98.955-203.895 269.685-270.39750029l73.2825 73.2825c5.4675 5.47499971 13.34999971 7.77750029 20.93249971 6.02250029 1.6425-0.37500029 164.835-37.77000029 218.80500029-51.44249971 32.94-8.35499971 48.15-30.40499971 54.25499971-78.63000029 8.46749971-67.04250029-25.5825-160.07249971-149.445-201.6-21.88500029-7.335-46.06499971-11.05499971-71.8575003-11.06250029C736.40750029-61.139999999999986 736.37-61.139999999999986 736.36250029-61.139999999999986zM266.10499971 784.14c-100.73999971 0-136.88250029-60.885-149.4675-111.97500029C91.90999971 571.76999971 139.38499971 435.51750029 246.89750029 298.34999971c142.82250029-182.23499971 348.66-314.48999971 489.465-314.48999971 0.0225 0 0.02999971 0 0.05249971 0 20.925 0 40.29000029 2.94000029 57.555 8.73 126.44250029 42.39 121.41 135.12750029 119.10750029 153.28500029-4.62750029 36.59249971-12.06 38.475-20.67000029 40.6575-44.88000029 11.37750029-166.71750029 39.47249971-205.66500029 48.42l-74.6700003-74.67000029c-6.12749971-6.12-15.2325-8.17499971-23.3775-5.31749971-230.77500029 81.24000029-312.23999971 306.1125-315.5924997 315.6450003-2.87250029 8.1675-0.80250029 17.26499971 5.3174997 23.3849997l84.9825 84.9525003c-11.68499971 37.08749971-45.17250029 143.1675-58.4325 182.7225-7.20749971 21.51-13.10249971 21.71999971-26.0325 22.1699997l-2.22000029 0.09C273.095 784.0725 269.56999971 784.14 266.10499971 784.14z"  horiz-adv-x="1024" />

    
    <glyph glyph-name="webicon318" unicode="&#59074;" d="M512 704C335.264 704 192 560.736 192 384c0-176.736 143.264-320 320-320s320 143.264 320 320C832 560.736 688.736 704 512 704zM512 96c-159.072 0-288 128.928-288 288 0 159.072 128.928 288 288 288s288-128.928 288-288C800 224.928 671.072 96 512 96zM512 384m-208 0a6.5 6.5 0 1 0 416 0 6.5 6.5 0 1 0-416 0Z"  horiz-adv-x="1024" />

    
    <glyph glyph-name="iconfontguanbi" unicode="&#58947;" d="M923.67 701.86666666c13.871 13.837 13.871 36.482 0 50.358l-60.383 60.383c-13.837 13.837-36.482 13.837-50.358 0l-284.416-284.416c-13.837-13.871-36.482-13.871-50.358 0l-284.416 284.416c-13.837 13.837-36.482 13.837-50.358 0l-60.383-60.428c-13.837-13.837-13.837-36.482 0-50.358l284.416-284.416c13.837-13.837 13.837-36.482 0-50.358l-284.416-284.416c-13.871-13.837-13.871-36.482 0-50.358l60.383-60.383c13.871-13.837 36.482-13.837 50.358 0l284.416 284.416c13.837 13.837 36.482 13.837 50.358 0l284.462-284.416c13.837-13.837 36.482-13.837 50.358 0l60.383 60.428c13.871 13.837 13.871 36.482 0 50.358l-284.416 284.416c-13.837 13.837-13.837 36.482 0 50.358l284.379 284.416zM923.67 701.86666666z"  horiz-adv-x="1024" />

    
    <glyph glyph-name="icon25201" unicode="&#59149;" d="M864.412328 672.626583l-97.931426 0c-2.449795 5.63944-12.700253 29.207206-17.578354 39.376823-14.46955 30.213116-23.321148 42.481534-52.979632 42.481534L330.729493 754.4849389999999c-29.061896 0-41.71917-11.815093-58.885132-55.038524-3.953032-9.94142-9.839089-22.887266-11.629875-26.839275l-100.627838 0c-55.345516 0-100.399641-44.992727-100.399641-100.299357l0-458.513832c0-55.305607 45.034682-100.278891 100.399641-100.278891l704.826703 0c55.347562 0 100.400664 44.992727 100.400664 100.278891L964.814016 572.307783C964.812993 627.6532990000001 919.779334 672.626583 864.412328 672.626583L864.412328 672.626583zM96.071056 572.3292730000001c0 34.969443 28.486798 63.476707 63.516616 63.476707l108.141976 0c13.399171 0 17.927301 5.988388 20.807908 12.471033 5.187139 11.692297 8.769734 20.2543 12.205996 28.528754 1.89414 4.569062 3.787256 9.03477 5.886057 13.995759 0.412392 0.947582 0.845251 2.058892 1.318018 3.294023 3.457752 8.830109 9.240455 23.587208 22.784936 23.587208l363.979782 0c11.876492 0 15.642259-8.727779 18.97619-16.403598l0.638543-1.481747c2.24411-5.063319 5.619998-12.700253 9.117658-20.540825 5.825682-13.110599 11.856026-26.63359 13.645788-30.957059 3.108804-7.449669 10.251481-12.471033 17.762549-12.471033l109.539812 0c35.031864 0 63.518662-28.507264 63.518662-63.476707L927.911548 113.83283700000004c0-34.967396-28.485775-63.453171-63.518662-63.453171L159.567205 50.37966700000004c-35.029818 0-63.516616 28.485775-63.516616 63.453171L96.05059 572.3292730000001 96.071056 572.3292730000001 96.071056 572.3292730000001zM512.001023 137.03118900000004c113.491821 0 205.822692 92.332918 205.822692 205.824739 0 113.490797-92.331895 205.823716-205.822692 205.823716-113.491821 0-205.824739-92.333942-205.824739-205.823716C306.175261 229.36308399999996 398.509203 137.03118900000004 512.001023 137.03118900000004L512.001023 137.03118900000004zM512.001023 512.989793c93.793176 0 170.092933-76.320223 170.092933-170.133865 0-93.7942-76.320223-170.114422-170.092933-170.114422-93.773733 0-170.09498 76.318176-170.09498 170.114422C341.906044 436.66957 418.2058 512.989793 512.001023 512.989793L512.001023 512.989793zM777.430278 511.878482l46.02422 0c10.165524 0 18.439978 8.233522 18.439978 18.420535 0 10.126638-8.275477 18.402115-18.439978 18.402115L777.430278 548.701133c-10.16757 0-18.441001-8.252964-18.441001-18.402115C758.989277 520.113027 767.263731 511.878482 777.430278 511.878482L777.430278 511.878482z"  horiz-adv-x="1024" />

    
    <glyph glyph-name="cuxiaoguanli" unicode="&#58894;" d="M912 832H556.8c-17.6 0-28.8-12.8-38.4-22.4L100.8 390.4C80 369.6 67.2 344 64 316.8c-3.2-33.6 9.6-67.2 33.6-91.2l252.8-252.8c19.2-19.2 44.8-33.6 73.6-35.2 33.6-3.2 67.2 9.6 91.2 33.6l438.4 438.4c4.8 4.8 6.4 14.4 6.4 27.2V784c0 25.6-20.8 48-48 48z m0-390.4c0-4.8-1.6-8-4.8-11.2L480 3.2c-12.8-12.8-30.4-19.2-46.4-19.2-17.6 0-33.6 6.4-46.4 19.2l-256 256c-25.6 25.6-25.6 67.2 0 92.8L556.8 779.2c3.2 3.2 8 4.8 11.2 4.8H896c9.6 0 16-8 16-16v-326.4zM564.8 342.4h-91.2v91.2c0 6.4-6.4 12.8-16 12.8s-16-6.4-16-12.8v-92.8L400 382.4c-3.2 3.2-8 4.8-11.2 4.8-4.8 0-8-1.6-11.2-4.8-6.4-6.4-6.4-16 0-22.4l44.8-44.8-22.4-24-44.8 44.8c-3.2 3.2-8 4.8-11.2 4.8-4.8 0-8-1.6-11.2-4.8-6.4-6.4-6.4-16 0-22.4l44.8-44.8-33.6-33.6c-6.4-6.4-6.4-16 0-22.4 3.2-3.2 8-4.8 11.2-4.8 4.8 0 8 1.6 11.2 4.8l33.6 33.6 44.8-44.8c3.2-3.2 8-4.8 11.2-4.8 4.8 0 8 1.6 11.2 4.8 6.4 6.4 6.4 16 0 22.4l-44.8 44.8 22.4 22.4 44.8-44.8c3.2-3.2 8-4.8 11.2-4.8 4.8 0 8 1.6 11.2 4.8 6.4 6.4 6.4 16 0 22.4l-41.6 41.6h92.8c6.4 0 12.8 6.4 12.8 16 1.6 9.6-4.8 16-11.2 16zM688 656c-52.8 0-96-43.2-96-96s43.2-96 96-96 96 43.2 96 96-43.2 96-96 96z m0-144c-27.2 0-48 20.8-48 48s20.8 48 48 48 48-20.8 48-48-20.8-48-48-48z"  horiz-adv-x="1024" />

    
    <glyph glyph-name="miaosha" unicode="&#59075;" d="M409.6732168 295.69451190999996c0.96839209 5.97175224-3.71217041 11.29791006-9.68392266 11.29791006H160.31220752c-8.71553057 0-13.07329541 10.49091592-6.94014434 16.62406699L654.5150624 831.05403808c6.77874551 6.77874551 18.2380544 0.96839209 16.624067-8.3927329l-56.8123462-350.23520391c-0.96839209-5.97175224 3.71217041-11.29791006 9.68392266-11.29791005h239.67708662c8.71553057 0 13.07329541-10.49091592 6.94014434-16.624067L369.4849376-62.93342489999998c-6.77874551-6.77874551-18.2380544-0.96839209-16.624067 8.39273378l56.8123462 350.23520304z"  horiz-adv-x="1024" />

    
    <glyph glyph-name="huiyuan" unicode="&#58891;" d="M152 440.25C101.375 440.25 67.625 474 67.625 519s39.375 84.375 84.375 84.375S230.75 569.625 230.75 519C230.75 474 191.375 440.25 152 440.25z m0 112.5c-22.5 0-33.75-16.875-33.75-33.75s16.875-33.75 33.75-33.75 33.75 16.875 33.75 33.75-16.875 33.75-33.75 33.75zM517.625 609c-50.625 0-84.375 33.75-84.375 84.375 0 45 39.375 84.375 84.375 84.375s84.375-39.375 84.375-84.375C596.375 642.75 562.625 609 517.625 609z m0 112.5c-22.5 0-33.75-16.875-33.75-33.75s16.875-33.75 33.75-33.75 33.75 16.875 33.75 33.75c-5.625 16.875-16.875 33.75-33.75 33.75zM877.625 440.25c-45 0-84.375 33.75-84.375 78.75s39.375 84.375 84.375 84.375 84.375-33.75 84.375-84.375S922.625 440.25 877.625 440.25z m0 112.5c-16.875 0-33.75-16.875-33.75-33.75s16.875-33.75 33.75-33.75 33.75 16.875 33.75 33.75-16.875 33.75-33.75 33.75zM759.5 125.25H258.875c-22.5 0-39.375 11.25-45 33.75L146.375 440.25c0 11.25 0 22.5 5.625 28.125 11.25 11.25 28.125 16.875 45 11.25L343.25 406.5l135 219.375c11.25 11.25 22.5 16.875 33.75 16.875 16.875 0 28.125-5.625 33.75-16.875L680.75 406.5l151.875 73.125c16.875 5.625 28.125 0 39.375-11.25 5.625-11.25 11.25-16.875 5.625-28.125l-73.125-281.25c-11.25-22.5-28.125-33.75-45-33.75z m-495 45c5.625 0 5.625 0 0 0z m0 5.625h489.375l67.5 247.5-129.375-61.875c-5.625 0-11.25-5.625-16.875-5.625-11.25 0-28.125 5.625-33.75 16.875L512 586.5 377 372.75c-11.25-16.875-33.75-22.5-50.625-11.25L202.625 423.375l61.875-247.5zM782-9.75H247.625c-16.875 0-22.5 11.25-22.5 22.5s11.25 22.5 22.5 22.5h540c16.875 0 22.5-11.25 22.5-22.5s-11.25-22.5-28.125-22.5z"  horiz-adv-x="1024" />

    
    <glyph glyph-name="caigou-xianxing" unicode="&#59527;" d="M884.90666666 635.73333334l-83.62666667-273.06666667H373.75999999L298.66666666 635.73333334h586.24M238.93333333 840.53333334H76.79999999v-68.26666667h111.78666667l19.62666667-68.26666667 106.66666666-385.70666666c1.70666667-5.12 4.26666667-9.38666667 7.68-12.8l-55.46666666-88.74666667c-6.82666667-5.97333333-11.09333333-15.36-11.09333334-24.74666667 0-18.77333333 15.36-34.13333333 34.13333334-34.13333333h605.86666666v68.26666667H353.27999999l42.66666667 68.26666666H827.73333333c14.50666667 0 26.45333333 9.38666667 31.57333333 23.89333334l104.10666667 339.62666666c6.82666667 22.18666667-8.53333333 46.08-31.57333334 46.08H278.18666666l-19.62666667 68.26666667L238.93333333 840.53333334zM349.86666666 21.333333339999967m-68.26666667 0a68.26666667 68.26666667 0 1 1 136.53333334 0 68.26666667 68.26666667 0 1 1-136.53333334 0ZM827.73333333 21.333333339999967m-68.26666667 0a68.26666667 68.26666667 0 1 1 136.53333333 0 68.26666667 68.26666667 0 1 1-136.53333333 0Z"  horiz-adv-x="1024" />

    
    <glyph glyph-name="caigou" unicode="&#59528;" d="M827.73333333 294.4c14.50666667 0 26.45333333 9.38666667 31.57333333 23.89333334l104.10666667 339.62666666c6.82666667 22.18666667-8.53333333 46.08-31.57333334 46.08H278.18666666l-19.62666667 68.26666667L238.93333333 840.53333334H76.79999999v-68.26666667h111.78666667l19.62666667-68.26666667 106.66666666-385.70666666c1.70666667-5.12 4.26666667-9.38666667 7.68-12.8l-55.46666666-88.74666667c-6.82666667-5.97333333-11.09333333-15.36-11.09333334-24.74666667 0-18.77333333 15.36-34.13333333 34.13333334-34.13333333h605.86666666v68.26666667H353.27999999l42.66666667 68.26666666H827.73333333zM349.86666666 21.333333339999967m-68.26666667 0a68.26666667 68.26666667 0 1 1 136.53333334 0 68.26666667 68.26666667 0 1 1-136.53333334 0ZM827.73333333 21.333333339999967m-68.26666667 0a68.26666667 68.26666667 0 1 1 136.53333333 0 68.26666667 68.26666667 0 1 1-136.53333333 0Z"  horiz-adv-x="1024" />

    
    <glyph glyph-name="yingyongchengxu-xianxing" unicode="&#59553;" d="M409.6 725.33333333v-238.93333333H170.66666667V725.33333333h238.93333333m51.2 68.26666667H119.46666667c-9.38666667 0-17.06666667-7.68-17.06666667-17.06666667v-341.33333333c0-9.38666667 7.68-17.06666667 17.06666667-17.06666667h341.33333333c9.38666667 0 17.06666667 7.68 17.06666667 17.06666667V776.53333333c0 9.38666667-7.68 17.06666667-17.06666667 17.06666667z m-51.2-512v-238.93333333H170.66666667V281.6h238.93333333m51.2 68.26666667H119.46666667c-9.38666667 0-17.06666667-7.68-17.06666667-17.06666667v-341.33333333c0-9.38666667 7.68-17.06666667 17.06666667-17.06666667h341.33333333c9.38666667 0 17.06666667 7.68 17.06666667 17.06666667V332.79999999999995c0 9.38666667-7.68 17.06666667-17.06666667 17.06666667z m392.53333333 375.46666666v-238.93333333H614.4V725.33333333h238.93333333m51.2 68.26666667H563.2c-9.38666667 0-17.06666667-7.68-17.06666667-17.06666667v-341.33333333c0-9.38666667 7.68-17.06666667 17.06666667-17.06666667h341.33333333c9.38666667 0 17.06666667 7.68 17.06666667 17.06666667V776.53333333c0 9.38666667-7.68 17.06666667-17.06666667 17.06666667z m-51.2-512v-238.93333333H614.4V281.6h238.93333333m51.2 68.26666667H563.2c-9.38666667 0-17.06666667-7.68-17.06666667-17.06666667v-341.33333333c0-9.38666667 7.68-17.06666667 17.06666667-17.06666667h341.33333333c9.38666667 0 17.06666667 7.68 17.06666667 17.06666667V332.79999999999995c0 9.38666667-7.68 17.06666667-17.06666667 17.06666667z"  horiz-adv-x="1024" />

    
    <glyph glyph-name="yingyongchengxu" unicode="&#59554;" d="M464 416H144c-8.8 0-16 7.2-16 16V752c0 8.8 7.2 16 16 16h320c8.8 0 16-7.2 16-16v-320c0-8.8-7.2-16-16-16z m16-400V336c0 8.8-7.2 16-16 16H144c-8.8 0-16-7.2-16-16v-320c0-8.8 7.2-16 16-16h320c8.8 0 16 7.2 16 16z m352 688H608v-224h224V704m48 64c8.8 0 16-7.2 16-16v-320c0-8.8-7.2-16-16-16H560c-8.8 0-16 7.2-16 16V752c0 8.8 7.2 16 16 16h320z m16-752V336c0 8.8-7.2 16-16 16H560c-8.8 0-16-7.2-16-16v-320c0-8.8 7.2-16 16-16h320c8.8 0 16 7.2 16 16z"  horiz-adv-x="1024" />

    
    <glyph glyph-name="ziyuan-xianxing" unicode="&#59556;" d="M512 721.92L756.90666667 640 512 558.0799999999999 267.09333333 640 512 721.92m0 71.68L102.4 657.06666667v-34.13333334l409.6-136.53333333 409.6 136.53333333v34.13333334L512 793.6z m0-415.57333333l-341.33333333 110.93333333h-68.26666667v-34.13333333l409.6-136.53333334 409.6 136.53333334v34.13333333h-68.26666667l-341.33333333-110.93333333zM512 204.79999999999995L170.66666667 315.73333333000005h-68.26666667v-34.13333333l409.6-136.53333333 409.6 136.53333333v34.13333333h-68.26666667L512 204.79999999999995z m0-170.66666667L170.66666667 145.06666667000002h-68.26666667v-34.13333334l409.6-136.53333333 409.6 136.53333333v34.13333334h-68.26666667l-341.33333333-110.93333334z"  horiz-adv-x="1024" />

    
    <glyph glyph-name="shouye" unicode="&#59577;" d="M946.34666667 482.98666667L532.48 779.09333333c-11.94666667 8.53333333-28.16 8.53333333-39.25333333 0L76.8 482.98666667c-13.65333333-9.38666667-6.82666667-30.72 10.24-30.72H170.66666667v-460.8c0-9.38666667 7.68-17.06666667 17.06666666-17.06666667h204.8c9.38666667 0 17.06666667 7.68 17.06666667 17.06666667V247.46666667h204.8v-256c0-9.38666667 7.68-17.06666667 17.06666667-17.06666667h204.8c9.38666667 0 17.06666667 7.68 17.06666666 17.06666667V452.26666667h83.62666667c16.21333333 0 23.04 21.33333333 9.38666667 30.72z"  horiz-adv-x="1024" />

    
    <glyph glyph-name="shouye-xianxing" unicode="&#59578;" d="M512.85333333 709.9733333300001L785.06666667 514.56V42.66666667000004H648.53333333V315.73333333000005H375.46666667v-273.06666666H238.93333333V514.56l273.92 195.41333333m0 75.94666667c-6.82666667 0-13.65333333-1.70666667-19.62666666-5.97333333L76.8 482.98666667c-13.65333333-9.38666667-6.82666667-30.72 10.24-30.72H170.66666667v-460.8c0-9.38666667 7.68-17.06666667 17.06666666-17.06666667h238.93333334c9.38666667 0 17.06666667 7.68 17.06666666 17.06666667V247.46666667h136.53333334v-256c0-9.38666667 7.68-17.06666667 17.06666666-17.06666667h238.93333334c9.38666667 0 17.06666667 7.68 17.06666666 17.06666667V452.26666667h83.62666667c16.21333333 0 23.04 21.33333333 10.24 30.72L532.48 779.09333333c-5.97333333 4.26666667-12.8 6.82666667-19.62666667 6.82666667z"  horiz-adv-x="1024" />

    
    <glyph glyph-name="yonghu-xianxing" unicode="&#59592;" d="M512 747.17866667c80.09955555 0 145.63555555-65.536 145.63555555-145.63555556s-65.536-145.63555555-145.63555555-145.63555556c-40.96 0-78.27911111 16.384-106.496 46.42133334-28.21688889 30.03733333-41.87022222 68.26666667-39.13955555 109.22666666 4.55111111 71.90755555 64.62577778 131.072 136.53333333 134.7128889 2.73066667 0.91022222 5.46133333 0.91022222 9.10222222 0.91022222M512 238.36444444999995c60.98488889 0 160.19911111-15.47377778 245.76-49.152 72.81777778-29.12711111 118.32888889-65.536 118.32888889-95.57333334v-73.728H147.91111111v73.728c0 30.03733333 45.51111111 66.44622222 118.32888889 95.57333334 85.56088889 33.67822222 184.77511111 49.152 245.76 49.152m0 581.632h-12.74311111c-109.22666667-6.37155555-198.42844445-94.66311111-205.71022222-202.97955556-8.192-127.43111111 91.93244445-233.01688889 217.54311111-233.01688889 120.14933333 0 218.45333333 98.304 218.45333333 218.45333333S632.14933333 819.99644445 512 819.99644445zM512 311.18222221999997c-145.63555555 0-436.90666667-72.81777778-436.90666667-217.54311111v-109.22666666c0-20.02488889 16.384-36.40888889 36.40888889-36.4088889h800.99555556c20.02488889 0 36.40888889 16.384 36.40888889 36.4088889V94.54933332999997C948.90666667 238.36444444999995 657.63555555 311.18222221999997 512 311.18222221999997z"  horiz-adv-x="1024" />

    
    <glyph glyph-name="yonghu" unicode="&#59593;" d="M498.34666667 819.99644445c-108.31644445-6.37155555-197.51822222-94.66311111-204.8-202.97955556-8.192-127.43111111 91.93244445-233.92711111 217.54311111-233.92711111 121.05955555 0 218.45333333 98.304 218.45333333 218.45333333 0.91022222 125.61066667-104.67555555 225.73511111-231.19644444 218.45333334zM512 312.09244445c-145.63555555 0-435.99644445-72.81777778-435.99644445-218.45333334v-109.22666666c0-20.02488889 16.384-36.40888889 36.4088889-36.4088889h799.1751111c20.02488889 0 36.40888889 16.384 36.4088889 36.4088889V94.54933332999997c0 144.72533333-290.36088889 217.54311111-435.99644445 217.54311112z"  horiz-adv-x="1024" />

    
    <glyph glyph-name="ditu" unicode="&#59654;" d="M357.6 42.66666667000004l-255.2-56c-20-4.8-39.2 10.4-39.2 31.2V305.06666667c0 15.2 10.4 28 24.8 31.2L243.2 370.66666667000004l53.6-53.6L139.2 282.66666667000004c-7.2-1.6-12.8-8-12.8-16v-188c0-10.4 9.6-17.6 19.2-16l192.8 42.4 12.8 3.2 12.8-2.4 306.4-60.8 210.4 47.2c7.2 1.6 12.8 8 12.8 16V294.66666667000004c0 10.4-9.6 17.6-19.2 16L688 268.26666666999995l-12-2.4L760 349.86666667l160.8 36c20 4.8 39.2-10.4 39.2-31.2v-286.4c0-15.2-10.4-28-24.8-31.2L672.8-21.33333332999996M512 746.66666667c-115.2 0-206.4-101.6-190.4-220 5.6-41.6 26.4-80 56-109.6l0.8-0.8L512 283.46666667l133.6 132.8 0.8 0.8c29.6 29.6 49.6 68 56 109.6C719.2 645.06666667 627.2 746.66666667 512 746.66666667m0 64c141.6 0 256-114.4 256-256 0-70.4-28-133.6-74.4-180L512 193.06666667000002 330.4 374.66666667000004C284.8 421.06666667 256 484.26666667 256 554.66666667 256 696.26666667 371.2 810.66666667 512 810.66666667z m64.8-193.6c0 35.2-28.8 64-64 64s-64-28.8-64-64 28.8-64 64-64 64 28 64 64z"  horiz-adv-x="1024" />

    
    <glyph glyph-name="sousuo2" unicode="&#59223;" d="M949.8221668 11.425787990000003c8.09974599-9.44970381 12.14961943-19.7993795 12.14961943-31.04902705 0-12.59960537-4.49985849-23.39926612-13.49957725-32.84896992-8.54973193-8.99971787-20.24936543-13.94956231-32.84896992-13.49957725-5.39983037 0-10.34967568 0.89997187-15.74950605 2.69991563-4.94984443 1.79994375-9.44970381 4.04987344-13.49957725 7.64976005l-4.94984443 4.04987344-248.39221289 250.19215664c-59.3981376-42.29867373-126.44603613-63.44801104-200.24372285-63.44801104-7.19977412 0-14.84953418 0.44998594-22.49929424 0.89997188-7.64976006 0.44998594-15.29952011 1.79994375-22.49929512 3.14990069-50.84840566 5.84981631-99.89686846 23.84925205-142.64552813 52.19836347-46.7985331 30.14905518-84.59734747 69.74781328-112.49647294 119.69624795-13.49957636 22.94928018-24.29923799 47.69850498-31.49901211 73.34770078C93.49901211 409.66330312 88.54916768 436.66245674 86.74922393 463.21162441c-1.79994375 26.99915362 0 53.99830722 4.49985937 80.54747491C97.99887148 586.5077589800001 113.2983916 627.4564749 135.79768672 664.8053042c22.49929424 37.3488293 51.74837754 69.74781328 86.39729121 95.84699502 29.69906924 23.39926612 62.54803916 41.39870185 98.99689658 54.44829317C357.19074599 827.70019776 394.98956035 834 433.23836152 834c16.199492 0 31.49901211-0.89997187 46.34854717-3.14990156 39.59875898-5.39983037 77.39757334-17.5494498 113.39644483-35.99887149 35.54888555-18.44942168 67.49788359-42.74865967 94.49703809-72.44772802 31.49901211-32.84896992 55.34826504-71.54775703 71.99774208-116.5463464s23.84925205-90.44716464 21.59932324-136.7957118c-2.69991563-76.9475874-29.2490833-146.24541563-79.19751709-207.89348204l249.29218477-250.19215664h-1.34995781v0.44998594z m-220.94307334 458.98561055c2.24992969 40.94871592-4.49985849 82.34741865-20.24936544 120.59621894-8.54973193 23.39926612-20.69935137 45.89856123-35.0988996 66.14792666-14.84953418 20.69935137-31.94899805 39.14877305-51.74837754 55.79825098-19.34939355 16.199492-40.94871592 29.69906924-63.89799697 40.49872998-49.04846192 22.49929424-103.04676914 31.49901211-156.59509043 25.19920987-3.14990156 0-5.84981631-0.44998594-8.99971788-0.89997188l-6.29980312-0.89997187c-42.74865967-6.74978818-83.69737646-22.94928018-119.24626113-47.69850411-35.54888555-24.29923799-65.24795479-56.69822286-86.84727715-94.04705214-24.74922393-40.94871592-38.24880117-86.39729122-40.49873086-136.79571094s6.74978818-96.7469669 27.44913955-139.49562656c17.5494498-38.69878711 43.1986456-73.34770078 76.04761641-100.3468544 32.39898398-27.44913955 70.19779922-47.69850498 111.14651513-59.3981376 42.74865967-12.14961943 85.94730528-14.39954825 129.59593682-7.199775 22.94928018 4.04987344 44.99858935 10.79966162 66.14792666 20.24936543 21.1493373 9.44970381 41.39870185 20.69935137 59.84812354 34.64891368 18.44942168 13.94956231 35.54888555 29.69906924 50.3984206 47.24851904 14.84953418 17.5494498 27.44913955 36.89884336 37.79881436 57.59819385 18.44942168 36.89884336 29.2490833 77.39757334 31.04902705 118.79627607z"  horiz-adv-x="1024" />

    
    <glyph glyph-name="2" unicode="&#59012;" d="M630.219 683.939h-291.651v110.009h58.602c0 15.204 5.57 28.143 16.793 38.642 11.125 10.601 24.862 15.825 41.058 15.825h58.602c16.098 0 29.767-5.219 41.109-15.825 11.125-10.599 16.686-23.465 16.686-38.642h58.595v-110.009zM484.806 733.145c9.95 0 18.443 3.397 25.631 10.073s10.834 14.832 10.834 24.234c0 9.956-3.682 18.201-10.834 24.577-7.196 6.465-15.633 9.607-25.631 9.607-10.601 0-19.27-3.318-26.163-9.607-6.759-6.465-10.211-14.639-10.211-24.577 0-9.441 3.452-17.478 10.211-24.234 6.759-6.747 15.615-10.073 26.163-10.073v0zM718.495 300.301c28.004 0 54.524-5.211 79.345-15.362 24.862-10.236 46.595-24.234 65.19-41.804 18.59-17.764 33.401-38.074 44.215-61.597 10.857-23.465 16.245-48.356 16.245-74.766 0-27.114-5.558-52.358-16.245-75.759-10.834-23.503-25.631-43.897-44.215-61.597-18.643-17.63-40.39-31.281-65.19-41.247-24.934-9.956-51.264-14.96-79.345-14.96-28.524 0-55.198 4.893-80.046 14.96-24.855 9.956-46.715 23.71-65.154 41.247-18.59 17.764-33.401 38.031-44.215 61.597-10.857 23.465-16.245 48.661-16.245 75.759 0 26.384 5.423 51.297 16.245 74.766 10.857 23.465 25.669 43.897 44.215 61.597 18.483 17.63 40.39 31.533 65.154 41.804 24.862 10.211 51.505 15.362 80.046 15.362v0zM845.447 123.423c3.775 4.034 7.196 9.305 10.178 14.992 3.185 5.938 2.162 11.125-2.738 15.825-1.262 1.262-4.294 4.034-8.851 8.745-4.587 4.885-7.489 7.356-8.851 7.988-6.171 4.031-12.083 4.587-17.641 1.743-5.694-2.921-11.125-7.196-16.686-12.393-14.278-13.463-28.383-26.596-42.501-39.599-14.025-12.866-27.133-25.133-39.634-36.926-4.294-4.123-9.007-6.746-14.278-7.489-5.338-0.804-9.443 0.707-12.658 4.893-1.859 1.635-4.766 4.587-8.853 8.735-4.027 4.034-8.3 8.521-12.436 13.219-4.303 4.885-8.723 9.317-12.658 13.619-4.031 4.398-6.95 7.489-8.745 9.305-3.775 2.921-7.988 4.893-12.658 5.929-4.766 0.804-9.443-0.663-14.402-4.893-0.583-0.513-2.162-1.859-4.766-3.782-2.407-2.115-4.893-4.303-7.372-7.196-2.567-2.624-5.004-4.893-7.372-6.95-2.567-1.983-4.027-3.397-4.587-3.865-9.334-9.334-8.189-20.251 3.682-32.629 3.775-4.034 8.723-9.316 14.992-15.362 6.114-6.114 12.768-12.866 19.515-19.715 6.759-7.021 13.619-13.905 20.481-20.708 6.911-6.746 12.849-12.083 17.766-16.192 4.896-4.59 11.659-6.95 20.555-6.746 8.735 0.006 15.18 2.917 19.515 7.489 8.745 7.676 18.59 16.793 29.871 27.714 11.011 10.857 22.949 21.851 34.883 32.929 12.083 11.125 24.029 22.204 35.444 32.985 11.308 10.857 21.66 20.481 31.107 28.585v0zM452.166 133.222c0-4.123-0.004-8.204-0.451-12.353s-0.481-8.434-0.481-13.219c0-26.384 4.027-51.505 12.076-75.209 8.178-23.71 19.537-45.548 34.459-65.46h-272.187c-11.659 0-24.561 3.116-38.611 9.596-14.025 6.465-27.114 14.992-39.172 25.521-12.083 10.601-22.204 22.626-30.275 36.086-8.188 13.463-12.083 27.573-12.083 42.239v544.645c0 12.225 3.116 25.070 9.317 38.235 6.324 13.219 14.278 25.419 24.337 36.591 9.95 11.125 21.515 20.306 34.459 27.852 13.040 7.295 26.741 10.93 41.103 10.93h66.172v-110.062h407.375v110.062h57.696c14.278 0 28.383-2.919 42.411-8.851s26.596-13.74 37.779-23.71 20.481-21.925 27.477-36.131c7.206-14.055 10.741-28.977 10.741-44.815v-311.323c-21.66 13.386-44.926 23.926-69.802 31.634-24.855 7.677-51.264 11.457-79.142 11.457h-6.516c11.308 4.123 20.481 10.857 27.69 20.213 6.957 9.441 10.741 20.059 10.741 31.751 0 15.18-5.694 28.039-17.299 38.642-11.457 10.601-25.133 15.825-41.247 15.825h-407.375c-16.098 0-29.871-5.212-41.381-15.825-11.556-10.601-17.271-23.465-17.271-38.642 0-15.318 5.694-28.369 17.271-39.172 11.556-10.857 25.419-16.218 41.381-16.218h390.437c-37.25-5.929-71.072-18.295-101.362-37.355-30.491-19.107-55.685-43.239-75.569-72.513h-213.399c-16.098 0-29.871-5.327-41.381-15.957-11.556-10.599-17.271-23.387-17.271-38.642 0-15.204 5.694-28.279 17.271-39.090 11.556-10.857 25.419-16.218 41.381-16.218l171.327-0.002zM452.166 133.222z"  horiz-adv-x="1024" />

    
    <glyph glyph-name="dizhi" unicode="&#58888;" d="M512 830.696448c-193.51552 0-350.976-157.46048-350.976-350.976 0-186.814464 314.50624-518.518784 327.875584-532.52608 6.030336-6.349824 14.390272-9.890816 23.100416-9.890816h0.70144c8.966144 0 17.421312 4.179968 23.323648 10.911744l108.898304 124.755968C789.62176 250.2144 862.976 387.062784 862.976 479.720448c0 193.51552-157.46048 350.976-350.976 350.976z m0-510.51008c-88.126464 0-159.53408 71.407616-159.53408 159.53408s71.407616 159.53408 159.53408 159.53408S671.53408 567.847936 671.53408 479.720448s-71.407616-159.53408-159.53408-159.53408z"  horiz-adv-x="1024" />

    
    <glyph glyph-name="huangguan" unicode="&#58916;" d="M932.75 559.5c-16.2 0-29.25-13.5-29.25-30.15 0-10.35 5.4-19.8 13.5-25.2-36.9-57.6-128.7-193.05-164.25-193.05-36.45 0-17.1 194.4-8.1 270 1.35 0 2.25-0.45 3.6-0.45 16.2 0 29.25 13.5 29.25 30.15s-13.05 30.15-29.25 30.15-29.25-13.5-29.25-30.15c0-12.6 7.65-23.85 18.9-27.9-26.55-68.4-95.85-238.5-132.75-238.5s-74.7 188.55-88.2 262.8c13.95 2.7 24.3 14.85 24.3 29.7 0 16.65-13.05 30.15-29.25 30.15s-29.25-13.5-29.25-30.15c0-14.85 10.35-27 24.3-29.7-13.5-74.25-50.85-262.8-88.2-262.8-36.9 0-106.2 170.1-132.75 238.5 10.8 4.5 18.9 15.3 18.9 27.9 0 16.65-13.05 30.15-29.25 30.15s-29.25-13.5-29.25-30.15 13.05-30.15 29.25-30.15c1.35 0 2.7 0.45 3.6 0.45 9-76.05 28.8-271.35-7.65-271.35-35.55 0-126.9 135.9-164.25 193.05 8.1 5.4 13.5 14.85 13.5 25.2 0 16.65-13.05 30.15-29.25 30.15S62.45 544.65 62.45 528s13.05-30.15 29.25-30.15c3.15 0 6.3 0.45 9 1.8l112.05-354.6s94.05-43.65 299.25-43.65c224.55 0 299.25 42.75 299.25 42.75l112.5 356.85c2.7-0.9 5.85-1.8 9-1.8 16.2 0 29.25 13.5 29.25 30.15s-13.05 30.15-29.25 30.15zM425.6 166.64999999999998c-10.35 0-18.9 11.7-18.9 25.65 0 14.4 8.55 25.65 18.9 25.65s18.9-11.7 18.9-25.65c0-14.4-8.55-25.65-18.9-25.65z m90-13.95c-16.2 0-29.25 17.55-29.25 39.6s13.05 39.6 29.25 39.6 29.25-17.55 29.25-39.6-13.05-39.6-29.25-39.6z m82.8 13.95c-10.35 0-18.9 11.7-18.9 25.65 0 14.4 8.55 25.65 18.9 25.65 10.35 0 18.9-11.7 18.9-25.65 0.45-14.4-8.1-25.65-18.9-25.65zM304.55 607.2c0 1.35 0.45 2.25 0.45 3.6 0 4.5-0.9 9-2.7 12.6 0.9-4.95 1.35-10.35 2.25-16.2zM736.55 579.75c-27.45-70.2-95.4-235.35-131.4-235.35-36.9 0-74.7 188.55-88.2 262.8 13.95 2.7 24.3 14.85 24.3 29.7 0 16.65-13.05 30.15-29.25 30.15s-29.25-13.5-29.25-30.15c0-14.85 10.35-27 24.3-29.7-13.5-74.25-50.85-262.8-88.2-262.8-24.3 0-63 74.25-93.6 144 24.3-129.15 63-296.1 113.85-385.2 22.5-1.35 46.8-1.8 73.35-1.8 34.65 0 65.7 0.9 93.6 2.7 72.45 122.4 135 312.3 130.5 475.65z m-310.95-413.1c-10.35 0-18.9 11.7-18.9 25.65 0 14.4 8.55 25.65 18.9 25.65s18.9-11.7 18.9-25.65c0-14.4-8.55-25.65-18.9-25.65z m90-13.95c-16.2 0-29.25 17.55-29.25 39.6s13.05 39.6 29.25 39.6 29.25-17.55 29.25-39.6-13.05-39.6-29.25-39.6z m82.8 13.95c-10.35 0-18.9 11.7-18.9 25.65 0 14.4 8.55 25.65 18.9 25.65s18.9-11.7 18.9-25.65c0.45-14.4-8.1-25.65-18.9-25.65z"  horiz-adv-x="1025" />

    
    <glyph glyph-name="huangguan1" unicode="&#58917;" d="M932.75 559.5c-16.2 0-29.25-13.5-29.25-30.15 0-10.35 5.4-19.8 13.5-25.2-36.9-57.6-128.7-193.05-164.25-193.05-36.45 0-17.1 194.4-8.1 270 1.35 0 2.25-0.45 3.6-0.45 16.2 0 29.25 13.5 29.25 30.15s-13.05 30.15-29.25 30.15-29.25-13.5-29.25-30.15c0-12.6 7.65-23.85 18.9-27.9-26.55-68.4-95.85-238.5-132.75-238.5s-74.7 188.55-88.2 262.8c13.95 2.7 24.3 14.85 24.3 29.7 0 16.65-13.05 30.15-29.25 30.15s-29.25-13.5-29.25-30.15c0-14.85 10.35-27 24.3-29.7-13.5-74.25-50.85-262.8-88.2-262.8-36.9 0-106.2 170.1-132.75 238.5 10.8 4.5 18.9 15.3 18.9 27.9 0 16.65-13.05 30.15-29.25 30.15s-29.25-13.5-29.25-30.15 13.05-30.15 29.25-30.15c1.35 0 2.7 0.45 3.6 0.45 9-76.05 28.8-271.35-7.65-271.35-35.55 0-126.9 135.9-164.25 193.05 8.1 5.4 13.5 14.85 13.5 25.2 0 16.65-13.05 30.15-29.25 30.15S62.45 544.65 62.45 528s13.05-30.15 29.25-30.15c3.15 0 6.3 0.45 9 1.8l112.05-354.6s94.05-43.65 299.25-43.65c224.55 0 299.25 42.75 299.25 42.75l112.5 356.85c2.7-0.9 5.85-1.8 9-1.8 16.2 0 29.25 13.5 29.25 30.15s-13.05 30.15-29.25 30.15zM425.6 166.64999999999998c-10.35 0-18.9 11.7-18.9 25.65 0 14.4 8.55 25.65 18.9 25.65s18.9-11.7 18.9-25.65c0-14.4-8.55-25.65-18.9-25.65z m90-13.95c-16.2 0-29.25 17.55-29.25 39.6s13.05 39.6 29.25 39.6 29.25-17.55 29.25-39.6-13.05-39.6-29.25-39.6z m82.8 13.95c-10.35 0-18.9 11.7-18.9 25.65 0 14.4 8.55 25.65 18.9 25.65 10.35 0 18.9-11.7 18.9-25.65 0.45-14.4-8.1-25.65-18.9-25.65zM685.7 112.20000000000005c22.5 93.6 38.7 198.9 45.9 298.35 0.45 23.85 1.8 49.95 3.6 74.7 0.9 31.05 0.45 60.75-0.9 89.1-28.8-72.9-94.05-229.95-129.15-229.95-36.9 0-74.7 188.55-88.2 262.8 13.95 2.7 24.3 14.85 24.3 29.7 0 16.65-13.05 30.15-29.25 30.15s-29.25-13.5-29.25-30.15c0-14.85 10.35-27 24.3-29.7-13.5-74.25-50.85-262.8-88.2-262.8-36.9 0-106.2 170.1-132.75 238.5 10.8 4.5 18.9 15.3 18.9 27.9 0 16.65-13.05 30.15-29.25 30.15-1.35 0-3.15 0-4.5-0.45 1.35-17.1 2.7-37.35 4.5-59.85 1.35 0 2.7 0.45 3.6 0.45 4.05-35.55 10.8-96.75 13.05-152.1 13.05-100.35 32.4-214.2 61.65-317.7 42.75-5.85 94.95-9.9 157.95-9.9 72.9 0 129.6 4.5 173.7 10.8z m-87.3 105.75c10.35 0 18.9-11.7 18.9-25.65 0.45-14.4-8.1-25.65-18.9-25.65-10.35 0-18.9 11.7-18.9 25.65 0 14.4 8.55 25.65 18.9 25.65z m-172.8-51.3c-10.35 0-18.9 11.7-18.9 25.65 0 14.4 8.55 25.65 18.9 25.65s18.9-11.7 18.9-25.65c0-14.4-8.55-25.65-18.9-25.65z m60.75 25.65c0 22.05 13.05 39.6 29.25 39.6s29.25-17.55 29.25-39.6-13.05-39.6-29.25-39.6-29.25 17.55-29.25 39.6zM733.85 584.7c-0.9 17.1-2.25 33.75-4.05 49.5-6.75-5.4-10.8-13.95-10.8-23.4 0-11.25 5.85-21.15 14.85-26.1z"  horiz-adv-x="1025" />

    
    <glyph glyph-name="huangguan2" unicode="&#58918;" d="M932.75 559.5c-16.2 0-29.25-13.5-29.25-30.15 0-10.35 5.4-19.8 13.5-25.2-36.9-57.6-128.7-193.05-164.25-193.05-36.45 0-17.1 194.4-8.1 270 1.35 0 2.25-0.45 3.6-0.45 16.2 0 29.25 13.5 29.25 30.15s-13.05 30.15-29.25 30.15-29.25-13.5-29.25-30.15c0-12.6 7.65-23.85 18.9-27.9-26.55-68.4-95.85-238.5-132.75-238.5s-74.7 188.55-88.2 262.8c13.95 2.7 24.3 14.85 24.3 29.7 0 16.65-13.05 30.15-29.25 30.15s-29.25-13.5-29.25-30.15c0-14.85 10.35-27 24.3-29.7-13.5-74.25-50.85-262.8-88.2-262.8-36.9 0-106.2 170.1-132.75 238.5 10.8 4.5 18.9 15.3 18.9 27.9 0 16.65-13.05 30.15-29.25 30.15s-29.25-13.5-29.25-30.15 13.05-30.15 29.25-30.15c1.35 0 2.7 0.45 3.6 0.45 9-76.05 28.8-271.35-7.65-271.35-35.55 0-126.9 135.9-164.25 193.05 8.1 5.4 13.5 14.85 13.5 25.2 0 16.65-13.05 30.15-29.25 30.15S62.45 544.65 62.45 528s13.05-30.15 29.25-30.15c3.15 0 6.3 0.45 9 1.8l112.05-354.6s94.05-43.65 299.25-43.65c224.55 0 299.25 42.75 299.25 42.75l112.5 356.85c2.7-0.9 5.85-1.8 9-1.8 16.2 0 29.25 13.5 29.25 30.15s-13.05 30.15-29.25 30.15zM425.6 166.64999999999998c-10.35 0-18.9 11.7-18.9 25.65 0 14.4 8.55 25.65 18.9 25.65s18.9-11.7 18.9-25.65c0-14.4-8.55-25.65-18.9-25.65z m90-13.95c-16.2 0-29.25 17.55-29.25 39.6s13.05 39.6 29.25 39.6 29.25-17.55 29.25-39.6-13.05-39.6-29.25-39.6z m82.8 13.95c-10.35 0-18.9 11.7-18.9 25.65 0 14.4 8.55 25.65 18.9 25.65 10.35 0 18.9-11.7 18.9-25.65 0.45-14.4-8.1-25.65-18.9-25.65zM598.4 103.64999999999998C664.1 232.35000000000002 719 421.35 733.85 573c-28.8-73.35-93.6-228.6-129.15-228.6-36.9 0-74.7 188.55-88.2 262.8 13.95 2.7 24.3 14.85 24.3 29.7 0 16.65-13.05 30.15-29.25 30.15s-29.25-13.5-29.25-30.15c0-14.85 10.35-27 24.3-29.7-13.5-74.25-50.85-262.8-88.2-262.8-36.9 0-106.2 170.1-132.75 238.5 10.8 4.5 18.9 15.3 18.9 27.9 0 16.65-13.05 30.15-29.25 30.15-4.05 0-8.1-0.9-11.7-2.7 2.7-16.65 6.3-36 10.8-57.6h0.9c1.35 0 2.7 0.45 3.6 0.45 1.8-13.5 3.6-30.15 5.4-49.05 25.2-115.2 66.6-273.15 130.5-427.05 29.25-2.25 61.2-3.6 97.2-3.6 31.95 0 60.75 0.9 86.4 2.25z m0 114.3c10.35 0 18.9-11.7 18.9-25.65 0.45-14.4-8.1-25.65-18.9-25.65-10.35 0-18.9 11.7-18.9 25.65 0 14.4 8.55 25.65 18.9 25.65z m-172.8-51.3c-10.35 0-18.9 11.7-18.9 25.65 0 14.4 8.55 25.65 18.9 25.65s18.9-11.7 18.9-25.65c0-14.4-8.55-25.65-18.9-25.65z m60.75 25.65c0 22.05 13.05 39.6 29.25 39.6s29.25-17.55 29.25-39.6-13.05-39.6-29.25-39.6-29.25 17.55-29.25 39.6zM735.2 584.25c1.8 18.9 2.7 37.35 2.7 54.9-11.25-4.5-18.9-15.3-18.9-28.35 0-11.7 6.3-21.6 16.2-26.55zM541.25 636.9c0 7.2-2.7 14.4-6.75 19.35 1.8-8.55 4.05-17.55 5.85-26.55 0.45 2.25 0.9 4.5 0.9 7.2zM482.75 636.9c0-5.85 1.8-11.7 4.95-16.2 2.25 14.4 4.95 27.9 7.2 40.5-7.65-5.4-12.15-14.4-12.15-24.3zM719 610.8c0-11.7 6.3-21.6 16.2-26.55 1.8 18.9 2.7 37.35 2.7 54.9-11.25-4.5-18.9-15.3-18.9-28.35zM515.6 231.89999999999998c-16.2 0-29.25-17.55-29.25-39.6s13.05-39.6 29.25-39.6 29.25 17.55 29.25 39.6-13.05 39.6-29.25 39.6zM583.55 176.54999999999995c1.35 11.7 2.7 23.85 3.15 36.45-4.5-4.5-7.65-12.15-7.65-20.25 0.45-6.3 2.25-12.15 4.5-16.2zM579.5 192.29999999999995c0 8.55 3.15 15.75 7.65 20.25 2.7 47.25 0.9 99.45-4.05 152.55-28.8 50.85-55.35 182.7-65.7 242.1 11.7 2.25 20.7 10.8 23.4 22.5-2.25 9.45-4.05 18.45-5.85 26.55-5.4 6.75-13.5 10.8-22.5 10.8-6.3 0-12.6-2.25-17.1-5.85-2.25-12.6-4.95-26.1-7.2-40.5 4.5-6.75 11.25-11.7 19.35-13.5-8.1-44.55-24.75-130.95-45-192.15-8.1-116.1-4.5-236.7 31.5-313.2h18.45c19.35 0 37.8 0.45 55.35 0.9 7.65 21.6 13.05 46.8 16.65 73.8-3.15 4.05-4.95 9.9-4.95 15.75z m-63.9-39.6c-16.2 0-29.25 17.55-29.25 39.6s13.05 39.6 29.25 39.6 29.25-17.55 29.25-39.6-13.05-39.6-29.25-39.6z"  horiz-adv-x="1025" />

    
    <glyph glyph-name="wuliu" unicode="&#59122;" d="M91.02640625 305.99153407999995H438.61761758c15.60169336 0 24.49103028 11.1570249 24.49103028 24.49103027 0 15.60169336-11.1570249 24.49103028-24.49103028 24.4910294h-347.59121133c-13.33400537 2.26768799-24.49103028-8.88933691-24.49103028-22.31404893s11.1570249-26.66801075 24.49103028-26.66801074zM91.02640625 455.29610947H438.61761758c15.60169336 0 24.49103028 11.1570249 24.49103028 24.49103027 0 15.60169336-11.1570249 24.49103028-24.49103028 24.49103028h-347.59121133c-13.33400537 2.26768799-24.49103028-11.1570249-24.49103028-22.31404981 0-15.51098584 11.1570249-26.66801075 24.49103028-26.66801074zM140.00846592 604.60068575H487.69038477c15.60169336 0 24.49103028 11.1570249 24.49103027 24.49102938s-11.1570249 22.31404981-24.49103027 22.31404981h-347.59121133c-13.33400537 2.26768799-22.31404981-8.88933691-22.31404981-20.04636181 0-15.60169336 8.88933691-26.75871826 22.22334229-26.75871738zM955.65047364 368.39830664L759.54081816 644.69340849c-6.71235645 6.71235645-13.33400537 6.71235645-17.86938134 6.71235645H636.99496104v100.23180821c0 15.60169336-11.1570249 24.49103028-24.49103028 24.49103027h-396.6639794c-15.60169336 0-24.49103028-11.1570249-24.49102938-24.49103027s8.88933691-22.31404981 24.49102938-22.31404981h372.08224161V335.01794033c0-15.60169336 11.1570249-24.49103028 24.49103027-24.49103027h296.34146367v-171.61862519h-53.51743652c-11.1570249 55.69441612-62.40677256 98.05482773-122.54585713 98.05482773s-109.21185263-42.36041162-122.545858-98.05482773H407.41423086c-11.1570249 55.69441612-62.40677256 98.05482773-122.54585713 98.05482773s-109.21185263-42.36041162-122.545858-98.05482773h-71.29610948c-15.60169336 0-24.49103028-11.1570249-24.49103028-24.49103028 0-15.60169336 11.1570249-24.49103028 24.49103028-24.49103027h78.00846592c11.1570249-55.69441612 62.40677256-98.05482773 122.54585713-98.05482774s109.21185263 42.26970411 122.545858 97.96412022h202.7313044c11.1570249-55.69441612 62.40677256-98.05482773 122.54585713-98.05482774S848.61560146 34.14110068000002 862.04031435 89.83551680000005h78.00846593c15.60169336 0 24.49103028 11.1570249 24.49103027 24.49103027V359.50896972c-6.71235645 4.44466846-8.88933691 6.62164893-8.88933691 8.88933692z m-666.33743233-331.98951797c-42.36041162 0-73.56379746 33.38036719-73.56379746 73.56379746 0 42.36041162 33.38036719 73.56379746 73.56379746 73.56379746s73.56379746-33.38036719 73.56379833-73.56379746-31.20338672-73.56379746-73.56379833-73.56379746z m445.73674746 0c-42.36041162 0-73.56379746 33.38036719-73.56379835 73.56379746 0 42.36041162 33.38036719 73.56379746 73.56379835 73.56379746 42.36041162 0 73.56379746-33.38036719 73.56379746-73.56379746s-31.29409424-73.56379746-73.56379746-73.56379746z m-6.71235645 568.19189707l176.06329365-247.359404H636.99496104v247.359404h91.34247128z"  horiz-adv-x="1032" />

    
    <glyph glyph-name="xuanzhong" unicode="&#58901;" d="M512 834C263.465 834 62 632.5350000000001 62 384s201.465-450 450-450 450 201.465 450 450C962 632.5125 760.5575 834 512 834z m0-855c-223.3125 0-405 181.6875-405 405S288.6875 789 512 789s405-181.6875 405-405-181.6875-405-405-405zM742.49 556.2375L464.93 235.95000000000005l-185.4675 164.88a22.5 22.5 0 1 1-29.9025-33.6375l202.5-180A22.5 22.5 0 0 1 467 181.5l1.4625 0.045c6.0075 0.405 11.61 3.1725 15.5475 7.7175l292.5 337.5a22.5225 22.5225 0 0 1-34.02 29.475z"  horiz-adv-x="1024" />

    
    <glyph glyph-name="xinpin" unicode="&#58896;" d="M818.56512 777.47712a17.2032 17.2032 0 0 0 17.19296-17.19296v-752.56832a17.21344 17.21344 0 0 0-11.57632-16.24576l-297.63072 139.07456-14.55104 6.80448-14.55616-6.80448-297.63072-139.07456a17.21856 17.21856 0 0 0-11.5712 16.24576V760.28416a17.20832 17.20832 0 0 0 17.18784 17.19296h613.13536m0 34.3808H205.42976c-28.48256 0-51.57376-23.0912-51.57376-51.57376v-752.56832c0-28.48256 23.0912-51.56864 51.57376-51.56864L512 99.39968l306.56512-143.25248c28.48256 0 51.57376 23.0912 51.57376 51.56864V760.28416c0 28.48256-23.0912 51.57376-51.57376 51.57376zM644.58752 258.63168c-2.73408 0-5.4784 0.65536-7.99744 1.9712L512 326.10304l-124.58496-65.50528a17.2032 17.2032 0 0 0-24.94464 18.1248l23.79264 138.73152-100.79232 98.2528a17.18784 17.18784 0 0 0 9.5232 29.32736l139.29472 20.23936 62.29504 126.22336a17.19296 17.19296 0 0 0 30.83776 0l62.28992-126.22336 139.29472-20.23936a17.18784 17.18784 0 0 0 9.5232-29.32736l-100.79744-98.24768 23.79264-138.73152a17.2032 17.2032 0 0 0-16.93696-20.096zM512 362.71616c2.74944 0 5.49888-0.65536 8.00256-1.97632l101.75488-53.49376-19.4304 113.3056a17.1776 17.1776 0 0 0 4.9408 15.21664l82.31936 80.24576-113.76128 16.53248a17.18784 17.18784 0 0 0-12.94336 9.40544L512 645.03808 461.12256 541.952a17.19808 17.19808 0 0 0-12.94336-9.40544l-113.7664-16.53248 82.31936-80.24576a17.1776 17.1776 0 0 0 4.9408-15.21664l-19.4304-113.3056 101.76 53.49376a17.1008 17.1008 0 0 0 7.99744 1.97632zM529.60768 196.80768a17.19296 17.19296 0 0 0-17.19296-17.18784h-123.0848a17.18784 17.18784 0 0 0 0 34.37568h123.0848a17.18272 17.18272 0 0 0 17.19296-17.18784zM651.8528 196.80768a17.19296 17.19296 0 0 0-17.19296-17.18784h-45.83936a17.18784 17.18784 0 0 0 0 34.37568h45.83936a17.1776 17.1776 0 0 0 17.19296-17.18784z"  horiz-adv-x="1024" />

    
    <glyph glyph-name="arrow" unicode="&#58919;" d="M106.951 420c23.39500001 0 42.359-18.964 42.359-42.36 0-23.391-18.964-42.358-42.359-42.358s-42.359 18.96699999-42.359 42.358c0 23.39500001 18.965 42.36000001 42.359 42.36zM274.259 420c23.39500001 0 42.36000001-18.965 42.36-42.36 0-23.391-18.965-42.358-42.36-42.359s-42.359 18.96699999-42.35900001 42.358c0 23.39500001 18.965 42.36000001 42.35900001 42.36zM441.566 420c23.39500001 0 42.359-18.964 42.359-42.36 0-23.391-18.964-42.358-42.359-42.358s-42.36 18.967-42.36 42.359c0.001 23.396 18.965 42.36000001 42.35999999 42.36zM608.875 420c23.394 0 42.36000001-18.965 42.36-42.36 0-23.391-18.965-42.358-42.36-42.359s-42.36 18.967-42.36 42.359c0 23.39500001 18.965 42.36000001 42.36 42.36zM952.288 406.721l-263.818 263.81900001c-12.095 12.089-35.304 8.487-51.84300001-8.05700001-16.538-16.539-20.149-39.753-8.05599999-51.846l226.64-226.642-226.634-226.637c-12.092-12.087-8.481-35.30999999 8.056-51.84 16.539-16.541 39.746-20.14700001 51.843-8.066l263.818 263.821c5.715 5.708 7.88 13.919 6.876 22.721 0.999 8.804-1.16699999 17.006-6.882 22.727z"  horiz-adv-x="1024" />

    
    <glyph glyph-name="yuezhifu" unicode="&#58974;" d="M523.70731719-84.29268280999997C231.02439031-84.29268280999997 106.92682906 21.073170939999954 106.92682906 236.48780531c0 177.95121938 140.48780531 365.2682925 309.07317094 423.8048775h215.41463437c168.58536563-58.536585 309.07317094-243.51219469 309.07317094-423.8048775-2.34146344-217.75609781-124.09756125-320.78048813-416.78048812-320.78048812z m114.7317075 353.56097531c18.7317075 0 35.12195156 16.39024406 35.12195062 35.12195156s-16.39024406 35.12195156-35.12195062 35.12195063h-70.24390313v2.34146343l84.29268375 84.29268375c14.04878063 16.39024406 7.02439031 28.09756125-7.02439031 42.14634094-14.04878063 14.04878063-37.463415 16.39024406-46.82926875 4.68292688L526.04878063 395.70731719l-77.26829251 77.2682925c-9.36585375 9.36585375-28.09756125 7.02439031-42.14634187-7.02439032-14.04878063-14.04878063-16.39024406-32.78048812-7.02439031-42.14634093l79.60975593-79.60975688c-2.34146344-2.34146344-2.34146344-4.68292688-2.34146343-7.02439031h-65.56097532c-18.7317075 0-35.12195156-16.39024406-35.12195156-35.12195062s16.39024406-35.12195156 35.12195156-35.12195157h70.24390219V231.80487844000004h-70.24390219c-18.7317075 0-35.12195156-16.39024406-35.12195156-35.12195157s16.39024406-35.12195156 35.12195156-35.12195156h70.24390219v-44.48780437c0-23.41463437 21.07317094-42.14634187 44.48780531-42.14634188s44.48780531 18.7317075 44.48780438 42.14634188V161.56097531h72.58536656c18.7317075 0 35.12195156 16.39024406 35.12195063 35.12195157s-16.39024406 35.12195156-35.12195063 35.12195156h-70.24390312v35.12195062l65.56097625 2.34146344z m51.51219468 529.17073219l-7.02439031-9.36585375-63.21951187-79.60975594h-213.07317094l-63.21951187 77.2682925-2.34146344 2.34146344-7.02439031 9.36585375 2.34146343 2.34146344c0 2.34146344-2.34146344 4.68292688-2.34146343 7.02439031 0 11.70731719 7.02439031 21.07317094 16.39024406 25.75609687v2.34146344s86.63414625 16.39024406 159.21951187 18.7317075c74.92682906 0 159.21951187-18.7317075 159.21951188-18.7317075v-2.34146344c9.36585375-4.68292688 16.39024406-14.04878063 16.39024406-25.75609687 0-2.34146344 0-4.68292688-2.34146344-7.02439031l7.02439031-2.34146344z m0 0z"  horiz-adv-x="1024" />

    
    <glyph glyph-name="bianji" unicode="&#59084;" d="M845.53778517-69.08839480999995H195.09703111c-33.33436075 0-68.02798592 14.23992149-94.30711296 39.87177814C74.44606407-3.649485939999977 58.91160519 29.29651371 58.91160519 61.789424069999995V720.19158926c0 33.52854073 16.18172814 64.53273259 44.79102407 86.21624889a152.62606222 152.62606222 0 0 0 91.45912889 30.09801444h349.65478742c17.54099371 0 31.78091406-13.91628629 31.78091406-31.06891776 0-17.02317853-14.23992149-31.0689189-31.71618702-31.0689189H195.03230407c-34.43471815 0-72.42941667-21.23042816-72.42941668-54.17642667v-658.40216519c0-33.91690297 37.60633629-68.80470926 72.49414372-68.80470926h650.37602816c33.78744889 0 53.72333853 35.21144149 53.72333739 68.80470926V398.23992149c0 17.08790557 14.36937443 30.93946482 31.91036928 30.93946368s31.91036814-13.85155925 31.91036814-30.93946368v-336.45049742c0-32.75181853-10.35630592-63.82073629-29.96856149-88.22278258a110.03575296 110.03575296 0 0 0-87.57551332-42.71976334zM499.96079445 344.90494407000006a40.64850147 40.64850147 0 0 0-28.47984184 11.45666332 38.51251371 38.51251371 0 0 0 0 55.40623816l424.93218702 413.86388594a40.97213667 40.97213667 0 0 0 56.89495666 0c15.72864-15.3402789 15.72864-52.29934592 0-67.57489778L540.54456889 356.36160739c-7.83195705-7.63777593-30.29219555-11.45666333-40.58377444-11.45666332z"  horiz-adv-x="1024" />

    
    <glyph glyph-name="wenti" unicode="&#59224;" d="M509.0319 832.306352c-246.565629 0-447.157179-200.521966-447.157179-447.157179 0-246.636237 200.556759-447.227788 447.157179-447.227788 246.565629 0 447.122387 200.591551 447.122387 447.227788 0.001023 246.565629-200.626343 447.157179-447.122387 447.157179z m0-851.694679c-223.12373 0-404.607084 181.518147-404.607084 404.5375 0 223.159546 181.518147 404.676669 404.607084 404.676669 223.089961 0 404.5375-181.587732 404.5375-404.676669 0.001023-223.019353-181.447539-404.5375-404.5375-404.5375z m30.742165 190.94996c0-16.838503-13.659091-30.463826-30.462802-30.463825-16.838503 0-30.462802 13.694907-30.462802 30.463825 0 16.83748 13.624299 30.462802 30.462802 30.462802 16.804734 0 30.462802-13.625322 30.462802-30.462802z m72.90852 381.690142c25.642007-23.406083 38.46301-51.702546 38.46301-84.890412 0-19.144012-4.50664-36.890188-13.554714-53.029774-9.013281-16.20917-26.620287-35.912931-52.854788-59.108212-17.607006-15.650445-29.135574-27.109428-34.515095-34.515095-5.414313-7.405667-9.431813-15.928784-12.051477-25.501814-2.65548-9.641591-4.121877-25.152866-4.541433-46.811142h-51.981908c-0.209778 7.195889-0.314155 12.57541-0.314155 16.138562 0 21.240767 3.039219 39.545668 9.013281 54.91675 4.437056 11.667737 11.528568 23.336498 21.345144 35.143405 7.161097 8.593725 20.157085 21.240767 38.881542 37.7293s30.91715 29.623691 36.506449 39.405475c5.589298 9.781784 8.419763 20.47124 8.419763 32.069393 0 21.030989-8.208962 39.476083-24.62791 55.336306-16.388249 15.860223-36.545334 23.824615-60.370973 23.824615-23.056112 0-42.269709-7.195889-57.710376-21.589714-15.440667-14.392802-25.571399-36.890188-30.358425-67.493184l-55.579853 6.637164c5.030573 41.013089 19.912515 72.383564 44.611034 94.183056 24.698518 21.798469 57.432037 32.698726 98.094132 32.698726 43.143613 0.001023 77.449953-11.737322 103.126752-35.143405z"  horiz-adv-x="1024" />

    
    <glyph glyph-name="qiandai" unicode="&#59057;" d="M402.15273168 604.46504581h212.81587808c65.85367969 0 116.08590715 142.80517708 116.08590715 142.80517707 0 42.76947323-4.28129697 75.12464498-77.4051036 77.40510361-73.11137906 2.29909997-90.60939397-51.11458475-143.15314897-51.11458475-53.84864958 0-80.77918815 41.99275027-147.04297757 51.11458475-66.23893428 9.16533097-77.38646224-34.63563037-77.38646224-77.40510361 0 0.00621378 50.21358611-142.80517708 116.08590715-142.80517707zM626.57595771 560.32232638H402.15273168c-248.52027923 0-309.55206277-488.23562695-309.55206276-488.23562696 0-64.13867539 51.9720869-128.55075726 116.08590715-128.55075725h611.33689591c64.11382026 0 116.08590715 64.40586809 116.08590715 128.55075725-0.00621378 0-61.05042489 488.23562695-309.53342142 488.23562696z m18.98310922-402.42327401c5.4122056 0 10.47643933-2.07540375 14.23577846-5.85338424a18.70348895 18.70348895 0 0 0 5.5302675-13.32235227 18.63513733 18.63513733 0 0 0-5.52405371-13.29749712 19.94624569 19.94624569 0 0 0-14.25441982-5.85338425h-115.55152176v-81.72368327c0-10.89897662-8.59366286-19.77225974-19.16330894-19.77225975s-19.16330894 8.87328313-19.16330894 19.77225975v81.72368327h-115.51423905c-10.92383175 0-19.80954245 8.59366286-19.80954245 19.16330894a18.68484759 18.68484759 0 0 0 5.53648128 13.30371092 19.92139056 19.92139056 0 0 0 14.24199225 5.85959802h115.55152175v88.01824617h-115.51423905c-10.92383175 0-19.80954245 8.59987664-19.80954245 19.16952272a18.66620624 18.66620624 0 0 0 5.5302675 13.30371091 19.92139056 19.92139056 0 0 0 14.24820604 5.85959804H491.68092729v6.73574152L362.30995058 420.3754898a19.94624569 19.94624569 0 0 0-5.95901858 14.20470955c0 5.07666128 1.95112809 9.82399203 5.4929848 13.34099361a18.57921328 18.57921328 0 0 0 13.32856605 5.48677101c5.3376402 0 10.37701878-2.10647267 14.20470954-5.93416344l121.45461627-121.42354736 121.45461628 121.42354736a20.07052137 20.07052137 0 0 0 14.24820603 5.93416344 18.51707543 18.51707543 0 0 0 13.33477982-5.50541236c7.45032667-7.44411287 7.23284423-19.80332866-0.47846134-27.52706181l-129.38961806-129.39583185v-6.72331396h115.56394932c5.42463317 0 10.48265311-2.07540375 14.24199225-5.85338426 3.5480705-3.52321536 5.54269506-8.32025637 5.5302675-13.32235225a18.66620624 18.66620624 0 0 0-5.52405372-13.31613848 19.97110082 19.97110082 0 0 0-14.24820603-5.84717046h-115.56394932v-88.01203239h115.55773554z"  horiz-adv-x="1024" />

    
    <glyph glyph-name="xiangyou" unicode="&#59001;" d="M314.9 832.2L763.1 384 314.9-64.20000000000005 259.6-9l392.9 393-392.9 393 55.3 55.2z"  horiz-adv-x="1024" />

    
    <glyph glyph-name="paihang" unicode="&#59198;" d="M831.87317041 389.15853633c-4.01707354 0-7.46341435 0.72439013-10.38292646 2.17317129a21.51219551 21.51219551 0 0 0-7.2878045 5.79512197 26.60487803 26.60487803 0 0 0-4.47804932 8.71463408 41.09268252 41.09268252 0 0 0-1.75609774 10.58048789H781.78048789c-0.13170761-8.03414619 1.00975606-15.1463417 3.40243857-21.35853721 2.41463408-6.16829238 5.79512197-11.41463408 10.18536592-15.69512196 4.39024395-4.30243945 9.7463417-7.55121972 16.02439014-9.79024395 6.27804844-2.23902422 13.21463408-3.38048789 20.85365918-3.38048789 6.60731748 0 12.95121972 1.00975606 19.03170674 2.98536591 6.08048789 1.97560987 11.45853633 4.89512198 16.09024395 8.69268341 4.67560987 3.84146367 8.40731748 8.56097578 11.19512196 14.22439013 2.76585381 5.68536592 4.14878028 12.13902422 4.14878116 19.38292646 0 7.90243945-2.12926816 14.70731748-6.38780538 20.34878116a29.52439013 29.52439013 0 0 1-17.69268252 11.06341436v0.41707353c6.36585381 1.82195156 11.10731748 5.3121955 14.26829239 10.47073095a33.1463417 33.1463417 0 0 1 4.78536592 17.78048789c0 6.19024395-1.36097578 11.67804844-4.08292647 16.39756143a39.90731748 39.90731748 0 0 1-10.58048789 12.07317041 45.8121955 45.8121955 0 0 1-14.66341523 7.39756143 55.8 55.8 0 0 1-16.2878045 2.48048789c-7.00243945 0-13.3463417-1.14146367-19.03170761-3.46829327-5.70731748-2.30487803-10.58048789-5.57560987-14.64146367-9.79024394-4.08292646-4.21463408-7.24390224-9.24146367-9.52682872-15.10243858-2.26097578-5.86097578-3.5121955-12.35853633-3.77560986-19.47073183h26.20975605c-0.1536583 7.11219551 1.58048789 13.01707354 5.13658565 17.69268252 3.55609776 4.6536583 8.82439013 7.02439013 15.80487803 7.02439014a20.63414619 20.63414619 0 0 0 13.39024395-4.76341436c3.88536592-3.16097578 5.83902422-7.68292646 5.83902422-13.63170674a14.92682959 14.92682959 0 0 0-2.80975606-9.48292734 18.21951211 18.21951211 0 0 0-7.17804932-5.44390224 29.30487803 29.30487803 0 0 0-9.43902422-2.26097579 57.18292646 57.18292646 0 0 0-9.50487803 0v-19.77804843c3.35853633 0 6.89268252-0.0878045 10.58048789-0.28536592 3.6878045-0.21951211 7.09024394-0.94390224 10.18536592-2.17317129a17.42926817 17.42926817 0 0 0 7.68292647-6.03658477c1.99756055-2.76585381 3.00731748-6.80487802 3.00731748-12.07317128 0-6.71707354-2.15121973-12.00731748-6.40975605-15.89268252a22.45609776 22.45609776 0 0 0-15.71707354-5.81707354zM508.61951211 695.64146367H536.1463417V834h-21.92926816c-0.76829239-5.26829238-2.39268252-9.70243945-4.85121973-13.25853633a29.37073184 29.37073184 0 0 0-9-8.56097578 35.91219551 35.91219551 0 0 0-12.07317129-4.56585381c-4.56585381-0.87804844-9.21951211-1.25121973-13.85121885-1.09756054v-21.16097578h34.15609688v-89.71463409zM226.04146367 573.48292646c-2.8536583-2.67804844-5.92682959-5.09268252-9.21951211-7.2-3.20487803-2.08536592-6.36585381-4.23658565-9.50487802-6.43170673-5.59756055-3.95121973-11.12926817-7.9463417-16.61707354-12.07317129a82.97560987 82.97560987 0 0 1-13.67560987-12.92926817 56.50243945 56.50243945 0 0 1-9.2195121-15.91463408 58.82926817 58.82926817 0 0 1-3.3804879-20.96341436H264.17073184v24.14634171H199.94146367c3.29268252 4.6536583 7.2 8.8463417 11.6341462 12.42439013 4.39024395 3.55609776 8.93414619 6.89268252 13.60975605 9.9878045 4.63170761 3.07317041 9.26341435 6.23414619 13.87317041 9.39512196 4.60975605 3.16097578 8.69268252 6.67317041 12.31463408 10.5804879 3.62195156 3.86341435 6.54146367 8.31951211 8.73658565 13.32439014 2.19512198 5.02682959 3.29268252 11.01951211 3.29268339 18 0 6.71707354-1.27317041 12.77560987-3.77560986 18.17560986a40.17073183 40.17073183 0 0 1-10.18536592 13.63170762 45.48292646 45.48292646 0 0 1-14.86097578 8.49512197 53.16585381 53.16585381 0 0 1-17.73658565 2.98536592c-8.18780449 0-15.36585381-1.42682959-21.6658538-4.25853721-6.27804844-2.8536583-11.48048789-6.80487802-15.6073166-11.8536583-4.17073183-5.07073183-7.24390224-11.01951211-9.32926817-17.7804879a67.60975606 67.60975606 0 0 1-2.72195156-22.03902421H193.92682959c0 3.66585381 0.35121973 7.39756055 1.0536583 11.15121973 0.72439013 3.7536583 1.90975606 7.17804844 3.6 10.27317041a21.29268252 21.29268252 0 0 0 6.69512198 7.50731748 17.56097578 17.56097578 0 0 0 10.20731659 2.8536583c5.92682959 0 10.82195156-1.84390224 14.64146367-5.61951211 3.81951211-3.73170761 5.70731748-9 5.70731749-15.69512197 0-4.23658565-0.92195156-7.99024394-2.80975606-11.28292735-1.86585381-3.29268252-4.19268252-6.25609776-6.98048789-8.89024395z m700.09024394-262.05365829h-183.81951211v-375.10243858h185.04878028c31.21463408 0 56.59024395 25.85853633 56.59024394 57.64390225V252.81951211c0 32.3121955-25.92439013 58.60975605-57.81951211 58.60975605zM692.8121955 596.4439022399999c0 31.89512197-25.39756055 57.84146367-56.6121955 57.84146368H409.75121973c-31.21463408 0-56.6121955-25.9463417-56.61219551-57.84146368v-660.11707265H692.87804844V308.33414618999996h-0.04390225V596.42195156zM62 400.2v-406.22926817c0-31.78536592 25.39756055-57.64390224 56.6121955-57.64390224h185.09268252V458.37073184H119.81951211A58.06097578 58.06097578 0 0 1 62 400.2z"  horiz-adv-x="1048" />

    
    <glyph glyph-name="weizhi" unicode="&#58925;" d="M512 657.80666667c80.9503125 0 146.5621875-65.61 146.5621875-146.5621875S592.95125 364.68229167000004 512 364.68229167000004s-146.563125 65.61-146.563125 146.5621875c0 80.95125 65.6109375 146.5621875 146.563125 146.5621875z m321.525-146.56125c0 177.45-143.9709375 321.4209375-321.525 321.4209375-177.555 0-321.525-143.9709375-321.525-321.4209375 0-64.8853125 19.1746875-125.1065625 52.2403125-175.6884375h-0.5184375l240.988125-385.063125c5.1815625-10.5721875 16.1690625-17.8275 28.815-17.8275 12.645 0 23.529375 7.2553125 28.815 17.8275L781.803125 335.55697917h-0.6215625c33.0646875 50.5809375 52.3434375 110.803125 52.3434375 175.6884375z"  horiz-adv-x="1024" />

    
    <glyph glyph-name="remen" unicode="&#59004;" d="M867.69401856 407.99805878c-13.96286719 69.85275029-42.25351904 135.0960249-77.66004815 178.99167042A16.32522305 16.32522305 0 0 1 761.49363886 572.79638731c19.70550528-78.6299581 3.514725-114.45902227-13.22343105-147.93533262-14.04929531 55.49615684-41.84058691 96.03072598-67.221508 132.99295166-45.9699082 66.98143125-85.66901016 124.83994307-44.74071475 254.95197363a16.32522305 16.32522305 0 0 1-3.90845039 16.32522393A16.32522305 16.32522305 0 0 1 620.73180107 833.99996133a16.32522305 16.32522305 0 0 1-4.56145927-0.65300889c-2.61203555-0.75864287-64.7343123-19.30217607-127.11587169-78.28424736a380.28167403 380.28167403 0 0 1-86.52368407-122.96734453c-18.37067783-41.40844893-30.3168999-87.25351729-35.71382726-136.89179912-21.99103594 53.12419717-42.80089482 132.12867568-8.82522333 194.15492138a16.32522305 16.32522305 0 0 1-26.0723417 19.20614502C250.65819336 624.25925391 195.21005205 535.1523430699999 167.12106523 443.7310919A463.9148332 463.9148332 0 0 1 146.34001602 318.47821669999996 413.8059999 413.8059999 0 0 1 159.60185878 203.55824676999998 394.54223643 394.54223643 0 0 1 254.85473604 32.14340127000003c44.17413398-46.3732374 98.2298294-80.06081572 156.42444902-97.42317099A16.32522305 16.32522305 0 0 1 430.24525332-41.80025682999997c-44.22214951 80.52176338-56.82138047 143.35466748-40.85147022 203.73878759 16.13316182 60.98911348 62.17029141 121.5941045 144.11330948 189.18052911 6.5781044-75.70102148 35.46414668-121.41164619 61.32522216-162.29192609 38.60435215-61.09474747 66.50127773-105.23046885-0.54737578-230.80984891A16.32522305 16.32522305 0 0 1 613.85600146-65.15492988999995c159.56465362 53.26824375 222.15748096 163.9148458 246.60690382 247.35594376 25.72663184 87.81049599 18.13060107 171.25159307 7.23111327 225.79704491z m-45.94109942-214.4558162c-13.33866797-45.52816729-35.03200869-85.88988105-64.46542588-119.97118565-27.15748945-31.44045937-60.95070176-57.39756503-100.89948339-77.55441415C694.16649688 93.60306621999996 669.41937881 146.28552246000004 628.91361933 210.37642881c-12.26312402 19.40781006-24.96798896 39.46862813-34.9743911 62.6120332-11.07234229 25.53456972-17.69846309 52.25031826-20.2528793 81.626117a40.33290498 40.33290498 0 0 1-65.85787179 27.60883329C418.91362754 308.83673203 368.88161943 242.09537753999996 350.39570469 172.20421552000005c-14.65428867-55.39052286-9.60307295-111.29000801 16.76696484-175.92829013a329.58705411 329.58705411 0 0 0-83.10499013 63.6011499 354.10369834 354.10369834 0 0 0-85.46734512 153.89884073 373.49230166 373.49230166 0 0 0-11.97503174 103.71318398 423.61073701 423.61073701 0 0 0 19.02368672 114.3245795c18.52432734 60.28808994 50.05121396 119.76952148 94.11011103 177.59922363 0.7682458-47.05505596 14.6638916-93.08258261 29.769525-129.64147998a40.33290498 40.33290498 0 0 1 77.36235294 11.06274023c4.94558261 45.41293037 15.8738792 87.43597558 32.48719453 124.89756152A337.25030537 337.25030537 0 0 0 585.200433 775.78613584c-22.72087002-116.45646153 20.56017832-179.57745703 62.59282647-240.78744229 24.14212471-35.17605528 49.11011279-71.55249346 61.38283975-120.03840702a40.33290498 40.33290498 0 0 1 75.17285244-8.13380186c9.8335459 19.68629854 18.81241875 40.0064001 23.38348183 64.95518233a466.286792 466.286792 0 0 0 20.42573555-71.68693624c9.99679834-50.08962656 17.01664453-126.6165123-6.4052499-206.55248818z"  horiz-adv-x="1024" />

    
    <glyph glyph-name="tuandui" unicode="&#59013;" d="M253.773913 508.66087c26.713043 0 53.426087 8.904348 75.686957 17.808695 4.452174 53.426087 31.165217 102.4 75.686956 133.565218 0 84.591304-71.234783 146.921739-151.373913 146.921739-84.591304 0-155.826087-62.330435-155.826087-146.921739 0-80.13913 71.234783-151.373913 155.826087-151.373913zM409.6 352.834783c-40.069565 31.165217-66.782609 75.686957-80.13913 129.113043h-97.947827c-106.852174 0-191.443478-89.043478-191.443478-195.895652v-93.495652c0-44.521739 35.617391-84.591304 80.139131-84.591305h97.947826v17.808696c0 111.304348 84.591304 209.252174 191.443478 227.06087zM792.486957 481.947826h-84.591305c-4.452174-53.426087-31.165217-102.4-75.686956-133.565217 97.947826-22.26087 173.634783-115.756522 173.634782-222.608696v-17.808696h97.947826c44.521739 0 80.13913 40.069565 80.139131 84.591305v93.495652c0 106.852174-84.591304 195.895652-191.443478 195.895652zM574.330435 326.121739h-115.756522c-111.304348 0-200.347826-89.043478-200.347826-200.347826v-89.043478c0-44.521739 40.069565-84.591304 84.591304-84.591305h347.269566c44.521739 0 80.13913 40.069565 80.13913 84.591305v89.043478c0 111.304348-89.043478 200.347826-195.895652 200.347826zM520.904348 352.834783c84.591304 0 155.826087 71.234783 151.373913 155.826087 0 84.591304-75.686957 151.373913-151.373913 151.373913-84.591304 0-155.826087-66.782609-155.826087-151.373913 8.904348-84.591304 71.234783-155.826087 155.826087-155.826087zM663.373913 628.869565c26.713043-26.713043 40.069565-62.330435 44.521739-106.852174 22.26087-4.452174 40.069565-13.356522 66.782609-13.356521 84.591304 0 155.826087 71.234783 151.373913 155.826087 0 84.591304-75.686957 151.373913-151.373913 151.373913-84.591304 0-151.373913-62.330435-155.826087-146.92174 17.808696-8.904348 31.165217-22.26087 44.521739-40.069565z"  horiz-adv-x="1024" />

    
    <glyph glyph-name="yuezhifu1" unicode="&#58906;" d="M90.125 560.44531278v3.51562445 1.75781304c5.27343749 28.12499972 19.33593776 42.1875 49.21874973 43.94531223h687.30468805c7.03124973 0 15.8203125 0 22.85156221-1.75781223 22.85156222-5.27343749 40.42968778-24.60937527 40.42968779-47.46093749v-123.04687556c0-10.54687501-1.75781222-14.06250028-14.06250028-14.06249946H606.92187499c-36.91406251 0-65.03906222-21.09374999-73.828125-56.25000027-3.51562527-5.27343749-3.51562527-10.54687501-3.51562526-15.8203125v-108.98437527c0-38.67187472 28.12499972-68.5546875 66.79687528-73.82812499 10.54687501-1.75781222 21.09374999-1.75781222 31.64062499-1.75781223h240.82031278c22.85156222 0 22.85156222 0 22.85156222-22.85156223v-110.7421875c0-15.8203125-5.27343749-29.88281277-15.8203125-40.42968776-7.03124973-7.03124973-17.57812473-7.03124973-26.36718751-10.54687501h-7.03124971c-3.51562527 1.75781222-7.03124973 1.75781222-10.54687501 1.75781222h-685.546875c-3.51562527 0-7.03124973 0-10.54687499-1.75781222h-5.2734375c-5.27343749 1.75781222-8.78906278 1.75781222-14.06250028 3.51562528-12.30468723 3.51562527-19.33593776 12.30468723-22.85156222 24.60937444 0 3.51562527 0 7.03124973-3.51562528 10.54687501v5.27343749c1.75781222 3.51562527 1.75781222 7.03124973 1.75781222 10.546875V551.65625001c0 3.51562527 0 7.03124973-1.75781222 8.78906277zM573.52343777 790.71874972c12.30468723-1.75781222 22.85156222-8.78906278 29.88281195-19.33593694 7.03124973-12.30468723 12.30468723-24.60937527 19.33593779-36.9140625 3.51562527-7.03124973-3.51562527-5.27343749-5.27343752-7.03125056-35.15625028-10.54687501-70.31249973-19.33593776-105.46874999-29.88281194-70.31249973-19.33593776-140.62500028-38.67187472-212.69531222-58.00781252-17.57812473-5.27343749-33.39843723-1.75781222-50.97656279-1.75781304 1.75781222 5.27343749 5.27343749 5.27343749 7.03124973 5.2734375 94.92187499 47.4609375 189.84375001 93.16406277 283.00781278 140.62500028 5.27343749 1.75781222 10.54687501 3.51562527 14.06250028 7.03124972h3.51562444c5.27343749-1.75781222 12.30468723 1.75781222 17.57812555 0zM90.125 560.44531278c1.75781222-3.51562527 1.75781222-7.03124973 1.75781222-10.54687501v-513.28125055c0-3.51562527 0-7.03124973-1.75781222-10.546875V560.44531278zM404.77343778 639.54687526c42.1875 12.30468723 86.13281223 22.85156222 128.32031221 35.15624945l174.0234375 47.46093752c12.30468723 3.51562527 22.85156222 5.27343749 35.15625028 1.75781304 15.8203125-3.51562527 26.3671875-14.06250028 29.88281196-28.12500054 5.27343749-17.57812473 8.78906278-33.39843723 14.06250026-50.97656195 1.75781222-5.27343749 0-7.03124973-5.2734375-7.03125056H403.01562473l1.75781305 1.75781304zM933.875 349.50781277c-3.51562527 28.12499972-21.09374999 45.70312528-52.734375 45.70312445H601.64843749c-24.60937527-1.75781222-42.1875-17.57812473-43.94531221-42.1875-1.75781222-36.91406251-1.75781222-73.828125 0-112.49999972 1.75781222-28.12499972 21.09374999-45.70312528 49.21874971-45.70312527h277.73437528c28.12499972 0 45.70312528 17.57812473 49.21874973 45.70312527v108.98437527z m-261.91406276-87.89062527c-22.85156222 0-31.64062499 8.78906278-31.64062502 31.64062499s8.78906278 31.64062499 31.64062502 31.64062501 31.64062499-8.78906278 31.64062499-31.64062501-8.78906278-31.64062499-31.64062499-31.64062499z"  horiz-adv-x="1045" />

    
    <glyph glyph-name="yonghu2" unicode="&#58890;" d="M508.033024-55.55200000000002c-245.481472 0-444.391424 198.934528-444.391424 444.416 0 245.4272 198.909952 444.416 444.391424 444.416 245.4272 0 444.416-198.9888 444.416-444.416C952.449024 143.38252799999998 753.460224-55.55200000000002 508.033024-55.55200000000002L508.033024-55.55200000000002zM605.466624 228.88038400000005l17.765376 15.568896c0 0 4.477952 40.741888 12.20608 55.525376 17.3056 33.173504 35.533824 88.889344 35.533824 88.889344s17.769472 12.911616 17.769472 35.533824c0 22.59456-17.769472 35.588096-17.769472 35.588096s6.70208 62.92992 6.70208 106.65472c0 91.845632-57.667584 142.216192-161.339392 142.216192-103.563264 0-179.187712-42.8032-179.187712-142.216192 0-43.7248 13.888512-106.65472 13.888512-106.65472s-17.823744-12.992512-17.823744-35.588096c0-22.622208 17.823744-35.533824 17.823744-35.533824s20.723712-64.502784 35.533824-88.889344c8.650752-14.239744 12.230656-55.525376 12.230656-55.525376l17.769472-15.568896c0 0 8.408064-90.164224-17.769472-106.655744-23.653376-14.891008-124.745728-34.556928-149.320704-48.932864 1.488896-1.54624 109.585408-94.747648 261.671936-94.747648 152.092672 0 260.429824 93.553664 260.429824 95.290368-26.257408 14.29504-124.992512 33.6896-148.348928 48.391168C597.028864 138.71718399999997 605.466624 228.88038400000005 605.466624 228.88038400000005L605.466624 228.88038400000005z"  horiz-adv-x="1024" />

    
    <glyph glyph-name="hebingxingzhuang" unicode="&#58966;" d="M782 374.49375V541.5a112.5 112.5 0 0 1-112.5 112.5H502.49375a108 108 0 1 1-160.9875 0H174.5a112.5 112.5 0 0 1-112.5-112.5v-167.00625a108 108 0 1 0 0-160.9875V46.5a112.5 112.5 0 0 1 112.5-112.5h495a112.5 112.5 0 0 1 112.5 112.5v167.00625a108 108 0 1 1 0 160.9875z"  horiz-adv-x="1024" />

    
    <glyph glyph-name="gouwuche1" unicode="&#58946;" d="M1009.88941308 707.25728643A74.99125107 74.99125107 0 0 1 952.39612021 734.00416582H236.97958555a24.9970834 24.9970834 0 0 1-7.49912519-1.49982451L211.98250214 814.4947754899999A24.9970834 24.9970834 0 0 1 186.98541875 833.99250117H86.9970834a24.9970834 24.9970834 0 0 1-1e-8-49.99416768h79.99066846l143.23328878-645.17472948A112.48687617 112.48687617 0 1 1 467.95263857 109.07707471000003h287.96640382a112.48687617 112.48687617 0 1 1 116.23643964 47.74442959A24.9970834 24.9970834 0 0 1 861.90667754 159.07124151000005H356.96558691l-22.2474041 99.98833446h560.18464541a74.99125107 74.99125107 0 0 1 74.99125108 61.99276817l57.24332138 324.96208769a74.99125107 74.99125107 0 0 1-17.2479876 61.2428546zM436.95625537 46.58436532999997a62.49270937 62.49270937 0 1 0-62.49270938 62.49270938 62.49270937 62.49270937 0 0 0 62.49270938-62.49270938z m474.94458984 0a62.49270937 62.49270937 0 1 0-62.49270937 62.49270938 62.49270937 62.49270937 0 0 0 62.49270937-62.49270938z m64.99241719 608.17904561l-57.24332138-324.96208769a24.9970834 24.9970834 0 0 0-24.99708428-20.7475796H336.96792002a24.9970834 24.9970834 0 0 1-12.4985417-3.74956259L240.47917753 684.00999903h711.91694268a24.9970834 24.9970834 0 0 0 24.99708428-29.24658809z"  horiz-adv-x="1099" />

    
    <glyph glyph-name="liulan" unicode="&#58921;" d="M512 733.65C273.05 733.65 62 533.85 62 384s211.05-349.65 450-349.65 450 200.25 450 349.65-211.05 349.65-450 349.65z m0-648.45c-209.25 0-403.2 185.4-403.2 298.8 0 113.4 193.95 298.8 403.2 298.8 209.25 0 403.2-185.4 403.2-298.8 0-113.4-193.95-298.8-403.2-298.8z m2.7 455.4h-5.4c-86.4 0-156.6-70.2-157.05-156.6 0-86.4 70.2-156.6 157.05-156.6h5.4c86.4 0 156.6 70.2 157.05 156.6 0 86.4-70.2 156.6-157.05 156.6z m0.9-264.15h-7.2c-59.4 0-107.55 48.15-108 107.55 0 59.4 48.6 107.55 108 107.55h7.2c59.4 0 107.55-48.15 108-107.55-0.45-59.4-48.6-107.55-108-107.55z"  horiz-adv-x="1024" />

    
    <glyph glyph-name="jinbi1" unicode="&#58965;" d="M224.74666667 746.66666667c-2.88 5.12-4.37333333 10.24-6.61333334 15.36-0.74666667 5.12-0.74666667 10.98666667 0 16.85333333 2.24 5.12 3.62666667 10.24 8.74666667 13.86666667 5.12 5.12 8.74666667 7.36 12.48 6.61333333 3.62666667 0 7.36-2.24 12.48-4.37333333l15.36-5.86666667c6.61333333-2.88 13.97333333-4.37333333 23.46666667-4.37333333 8.10666667 0 14.61333333 2.24 20.48 6.61333333l13.86666666 15.36 13.86666667 14.61333333c5.86666667 4.37333333 13.22666667 6.61333333 21.22666667 6.61333334 9.49333333 0 16.10666667-2.24 20.48-6.61333334 5.12-3.62666667 9.49333333-8.74666667 13.86666666-14.61333333l15.36-15.36c5.12-3.62666667 12.48-6.61333333 21.97333334-6.61333333 6.61333333 0 13.22666667 2.24 18.34666666 6.61333333l15.36 15.36c5.12 5.12 8.74666667 9.49333333 14.61333334 14.61333333 5.86666667 4.37333333 13.22666667 6.61333333 21.22666666 6.61333334 8.74666667 0 16.10666667-2.24 21.22666667-6.61333334 5.12-3.62666667 9.49333333-8.74666667 13.86666667-14.61333333l13.86666666-15.36c5.12-4.37333333 11.73333333-6.61333333 20.48-6.61333333 9.49333333 0 17.6 1.49333333 23.46666667 4.37333333l16.10666667 5.86666667c5.12 2.24 8.10666667 4.37333333 11.73333333 4.37333333 2.24 0.74666667 6.61333333-1.49333333 12.48-6.61333333 4.37333333-3.62666667 7.36-8.74666667 8.10666667-13.86666667 0.74666667-5.86666667 0.74666667-11.73333333 0-16.85333333-0.74666667-5.12-3.62666667-10.24-6.61333334-15.36-2.88-4.37333333-6.61333333-8.74666667-10.24-12.48L608 716.69333333c-9.49333333-9.49333333-17.6-18.34666667-27.09333333-27.09333333-10.98666667-10.98666667-21.22666667-22.72-32.21333334-34.45333333H314.13333333c-12.48 11.73333333-22.72 23.46666667-33.70666666 34.45333333-8.10666667 8.74666667-17.6 17.6-25.6 27.09333333L235.73333333 734.29333333c-3.62666667 3.62666667-7.36 7.25333333-10.98666666 12.37333334z m552.53333333-477.01333334c93.76 0 170.77333333 40.32 170.77333333 90.88v-35.94666666c0-49.81333333-76.90666667-90.88-170.77333333-90.88-24.21333333 0-48.32 2.88-71.04 8.10666666-17.6 11.73333333-38.82666667 19.84-62.29333333 26.34666667-22.72 14.61333333-36.58666667 35.2-36.58666667 56.42666667V360.53333333c-0.10666667-50.56 75.41333333-90.88 169.92-90.88zM558.93333333-24.10666666999998c93.76 0 170.77333333 41.06666667 170.77333334 90.88v-35.94666666c0-49.81333333-76.90666667-90.88-170.77333334-90.88s-170.77333333 41.06666667-170.77333333 90.88v35.94666666c0-50.66666667 76.90666667-90.88 170.77333333-90.88z m48.32 410.98666667c0 49.81333333 75.52 91.62666667 170.02666667 91.62666667 93.76 0 170.77333333-41.70666667 170.77333333-91.62666667 0-49.06666667-76.90666667-90.13333333-170.77333333-90.13333333-94.50666667 0-170.02666667 41.06666667-170.02666667 90.13333333z m-32.21333333-96.64c-5.12 0-176.64 1.49333333-214.72-104.74666667-2.24-2.88-3.62666667-7.36-5.12-12.48-2.24-8.74666667-4.37333333-21.97333333-2.24-41.70666666v-95.25333334c-31.46666667 2.88-57.17333333 8.10666667-82.77333333 14.61333334C225.49333333 63.89333333000002 188.8 82.13333333000003 159.57333333 105.60000000000002c-28.58666667 24.21333333-49.81333333 53.54666667-63.78666666 87.25333333-13.22666667 34.45333333-19.73333333 73.28-19.73333334 116.48 0 24.21333333 2.88 48.32 8 72.53333334 6.61333333 22.72 13.22666667 43.2 24.21333334 63.04 9.49333333 19.09333333 21.22666667 36.69333333 34.45333333 52.8 12.48 16.85333333 25.6 30.82666667 39.57333333 44.69333333 31.46666667 30.08 65.92 57.17333333 106.98666667 78.4H572.8c40.32-21.22666667 74.02666667-48.32 105.49333333-78.4 10.98666667-10.98666667 20.48-21.22666667 31.46666667-35.2-30.82666667-5.86666667-120.96-32.96-132.58666667-99.62666667L572.8 379.73333333000005c-2.24-16.85333333-3.62666667-41.06666667 0-66.66666666 1.49333333-13.33333333 2.24-20.69333333 2.24-22.82666667z m-228.69333333 87.89333333c0-8.74666667 6.61333333-16.10666667 15.36-16.10666666h58.66666666v-35.2c0-9.49333333 5.12-14.61333333 14.61333334-14.61333334 8.10666667 0 14.61333333 5.86666667 14.61333333 14.61333334v35.2h58.66666667c8.10666667 0 14.61333333 7.36 14.61333333 16.10666666 0 8.10666667-6.61333333 14.61333333-14.61333333 14.61333334h-58.66666667V421.33333333h58.66666667c8.10666667 0 14.61333333 6.61333333 14.61333333 15.36 0 8-6.61333333 15.36-14.61333333 15.36h-49.81333334l60.8 61.54666667c6.61333333 6.61333333 6.61333333 13.86666667 0 20.48-5.12 5.12-14.61333333 5.12-20.48 0l-60.05333333-60.8h-6.50666667l-58.66666666 58.66666667c-6.61333333 6.61333333-13.86666667 6.61333333-20.48 0-5.12-5.12-5.12-14.61333333 0-21.22666667l58.66666666-58.66666667h-49.81333333c-8.74666667 0-15.36-7.36-15.36-15.36 0-8.74666667 6.61333333-15.36 15.36-15.36h58.66666667v-28.58666666h-58.66666667c-8.96 0-15.57333333-6.50666667-15.57333333-14.61333334z m430.93333333-296.74666666c93.76 0 170.77333333 39.57333333 170.77333333 90.13333333v-36.58666667c0-49.06666667-76.90666667-90.13333333-170.77333333-90.13333333-5.12 0-10.24-0.74666667-15.36 1.49333333v20.48c0 2.88-0.74666667 6.61333333-1.49333333 10.24 0.74666667 0.74666667 0.74666667 2.24 0.74666666 4.37333334h16.10666667z m0 63.04c93.76 0 170.77333333 40.32 170.77333333 90.13333333v-35.94666667c0-50.56-76.90666667-90.13333333-170.77333333-90.13333333h-15.36v21.22666667c0 2.88-0.74666667 6.61333333-1.49333333 10.24 0.74666667 0.74666667 0.74666667 2.24 0.74666666 4.37333333h16.10666667z m-16.85333333 27.09333333c-2.24 12.48-7.36 24.96-16.85333334 37.33333333 10.98666667-1.49333333 21.97333333-2.24 33.70666667-2.24 93.76 0 170.77333333 41.81333333 170.77333333 91.62666667v-36.58666667c0-49.81333333-76.90666667-90.13333333-170.77333333-90.13333333h-16.85333333zM558.93333333 39.57333332999997c93.76 0 170.77333333 39.57333333 170.77333334 90.13333334v-36.58666667c0-49.06666667-76.90666667-90.13333333-170.77333334-90.13333333s-170.77333333 41.06666667-170.77333333 90.13333333v36.58666667c0-50.56 76.90666667-90.13333333 170.77333333-90.13333334z m0 207.36c93.76 0 170.77333333-40.32 170.77333334-90.13333333 0-50.56-76.90666667-90.13333333-170.77333334-90.13333333S388.16 106.24000000000001 388.16 156.79999999999995c0 49.92 76.90666667 90.13333333 170.77333333 90.13333333z"  horiz-adv-x="1024" />

    
    <glyph glyph-name="guanbi2" unicode="&#58908;" d="M511.99981719 833.99963349a449.99981719 449.99981719 0 1 1 449.9998163-449.9998163A449.4138794 449.4138794 0 0 1 511.99981719 833.99963349z m0-854.99232802A403.30794112 403.30794112 0 0 0 107.00730547 383.99981719000004 403.30794112 403.30794112 0 0 0 511.99981719 788.99232803a403.30794112 403.30794112 0 0 0 404.99251084-404.99251084 403.30794112 403.30794112 0 0 0-404.99251084-404.99251172z m0 0M704.0041332 576.0041332000001a20.03172979 20.03172979 0 0 1-29.99266348 0l-162.01165253-162.01165253-162.01165342 162.01165253a20.03172979 20.03172979 0 0 1-29.99266348 0 20.03172979 20.03172979 0 0 1 0-29.99266348l162.01165343-162.01165253-162.01165343-162.01165342a20.03172979 20.03172979 0 0 1 0-29.99266348 20.03172979 20.03172979 0 0 1 29.99266348 0l162.01165342 162.01165343 162.01165253-162.01165343a21.2072669 21.2072669 0 0 1 29.99266348 29.99266348l-162.01165253 162.01165342 162.01165253 162.01165253a27.28270372 27.28270372 0 0 1 0 29.99266348z m0 0"  horiz-adv-x="1024" />

    
    <glyph glyph-name="sousuo" unicode="&#59005;" d="M760.66977412 175.09055770999998A391.46147315 391.46147315 0 0 1 857.35454346 433.82795068a397.67514698 397.67514698 0 1 1-397.67514698-395.18967744 397.67514698 397.67514698 0 0 1 204.5541542 56.42016153l-49.70939326 48.21811171A332.05874766 332.05874766 0 0 0 128.36629004 433.82795068a331.81020088 331.81020088 0 0 0 663.3718541 0 327.58490215 327.58490215 0 0 0-119.79963721-253.02081269l52.44340958-51.94631602-5.46803351-5.46803349L909.79795391-66 956.77333086-19.521717480000007z"  horiz-adv-x="1024" />

    
    <glyph glyph-name="weixin" unicode="&#58880;" d="M330.68 580.1840625c-30.5353125 0-60.4903125 20.169375-60.4903125 50.120625 0 30.5353125 29.956875 50.120625 59.9090625 50.120625 30.5353125 0 50.120625-19.5890625 50.120625-50.120625 0.5803125-29.956875-19.5890625-50.120625-49.5403125-50.120625z m280.5403125 100.2421875c30.5353125 0 50.120625-19.5890625 50.120625-50.120625 0-29.956875-19.5890625-50.120625-50.120625-50.120625-29.956875 0-60.4903125 20.169375-60.4903125 50.120625 0 30.5353125 30.5334375 50.120625 60.4903125 50.120625z m216.0290625-108.8775c12.673125 0 25.3471875-0.5803125 38.5940625-2.3015625C830.7021875 731.1225 657.8796875 850.944375 460.865 850.944375c-220.63125 0-401.5209375-150.3515625-401.521875-341.03625 0-110.6090625 59.9090625-200.475 160.7221875-270.7546875l-40.32375-120.975 140.5640625 70.280625c50.120625-9.7903125 90.44625-20.169375 140.5640625-20.169375 12.09375 0 24.7696875 0.5803125 37.441875 1.726875-8.0615625 26.499375-12.673125 55.303125-12.673125 84.1096875 0 175.119375 150.3515625 317.413125 341.61 317.413125zM962.046875 309.43875c-19.5890625 0-39.7528125 19.5890625-39.7528125 39.7528125 0.5803125 20.169375 20.169375 40.32375 39.7528125 40.32375 30.5334375 0 50.6953125-20.169375 50.6953125-40.32375 0-20.169375-20.169375-39.7528125-50.6953125-39.7528125z m-220.6340625 0c-19.5890625 0-39.7528125 19.5890625-39.7528125 39.7528125s20.169375 40.32375 39.7528125 40.32375c30.5334375 0 50.120625-20.169375 50.120625-40.32375 0.5803125-20.169375-19.5890625-39.7528125-50.120625-39.7528125z m451.635-50.6990625c0 160.7221875-160.7221875 291.495-341.03625 291.495-190.6734375 0-341.03625-130.7653125-341.03625-291.495 0-160.7221875 150.3515625-290.9184375 341.03625-290.9184375 40.32375 0 80.65125 10.3715625 120.40125 20.169375l110.6090625-60.4903125-30.5334375 100.23375c80.65125 60.4903125 140.5565625 140.5565625 140.5565625 231.00375z"  horiz-adv-x="1258" />

    
    <glyph glyph-name="weixin3" unicode="&#58904;" d="M502.55 467.7c13.95 0 25.2 10.8 25.2 24.3s-11.25 24.3-25.2 24.3c-13.95 0-25.2-10.8-25.2-24.3 0-13.5 11.25-24.3 25.2-24.3zM377.45 516.75c-13.95 0-25.2-10.8-25.2-24.3 0-13.5 11.25-24.3 25.2-24.3 13.95 0 25.2 10.8 25.2 24.3 0 13.05-11.25 24.3-25.2 24.3zM558.8 389.4c-11.7 0-21.15-9.45-21.15-20.7 0-11.25 9.45-20.7 21.15-20.7s21.6 9.45 21.6 20.7c0 11.7-9.45 20.7-21.6 20.7zM665 389.4c-11.7 0-21.15-9.45-21.15-20.7 0-11.25 9.45-20.7 21.15-20.7s21.6 9.45 21.6 20.7c-0.45 11.7-9.9 20.7-21.6 20.7zM512 834C263.6 834 62 632.4 62 384s201.6-450 450-450 450 201.6 450 450S760.4 834 512 834zM440 289.5c-19.8 0-39.15 2.7-57.15 7.65-0.9 0.45-3.15 0.9-3.15 0.9l-65.25-33.3 17.55 54.45s-0.9 0.9-1.8 0.9C287.45 348.45000000000005 260 391.65 260 440.25 260 523.5 340.55 591 440 591c90 0 164.7-55.35 178.2-127.8h-7.65c-90.45 0-164.25-61.65-164.25-137.7 0-12.6 2.25-24.3 5.85-36-4.05 0.45-8.1 0-12.15 0z m264.15-65.7c-0.45-0.45-1.35-0.9-1.35-0.9l14.85-45.9-54.9 27.9s-1.8-0.45-2.7-0.9c-15.3-4.05-31.5-6.3-48.15-6.3-84.15 0-152.1 57.15-152.1 127.35s67.95 127.35 152.1 127.35c84.15 0 152.1-57.15 152.1-127.35 0-40.95-23.4-77.85-59.85-101.25z"  horiz-adv-x="1024" />

    
    <glyph glyph-name="paihang1" unicode="&#58931;" d="M507.07934281 624.43814063c43.27482094-2.2918125 75.3602025 34.37719406 81.42676594 74.2817025 0.808875 2.69625094 1.0785 5.66212594 0.9436875 8.89762593 0.1348125 3.10068844-0.1348125 5.93175094-0.808875 8.49318938-5.79693844 42.46594594-37.88232 72.25951406-81.56157844 74.68614C460.56902094 793.35823594 427.00070187 750.7574775 424.70888937 707.61746906c-2.56143844-46.91475937 39.50007-80.88751594 82.37045344-83.17932844z m30.87206813 83.17932843c-2.157-40.1741325-59.72194875-40.1741325-61.74413625 0-2.157 40.308945 59.58713625 40.03932 61.74413625 0zM197.01053188 509.57786812c0.1348125 3.10068844-0.1348125 5.93175094-0.808875 8.49318938-5.79693844 42.46594594-37.88232 72.25951406-81.56157844 74.68613906-46.51032188 2.56143844-80.07864094-40.03932-82.37045344-83.17932844-2.56143844-46.91475937 39.6348825-80.88751594 82.37045344-83.17932843 43.27482094-2.2918125 75.3602025 34.37719406 81.42676594 74.28170156 0.6740625 2.56143844 1.0785 5.52731344 0.9436875 8.89762688z m-113.37733407 0c-2.157 40.308945 59.72194875 40.03932 61.74413719 0-2.157-40.308945-59.58713625-40.308945-61.74413719 0z m908.09717719 0c0.1348125 3.10068844-0.1348125 5.93175094-0.808875 8.49318938-5.79693844 42.46594594-37.88232 72.25951406-81.56157844 74.68613906-46.51032188 2.56143844-80.07864094-40.03932-82.37045343-83.17932844-2.56143844-46.91475937 39.6348825-80.88751594 82.37045343-83.17932843 43.27482094-2.2918125 75.3602025 34.37719406 81.42676594 74.28170156 0.808875 2.56143844 1.2133125 5.52731344 0.9436875 8.89762688z m-113.2425225 0c-2.157 40.308945 59.72194875 40.03932 61.74413719 0-2.157-40.308945-59.58713625-40.308945-61.74413719 0z m-62.01376219-86.95407937c-113.377335 8.62800187-217.85704219 53.38576031-285.80255531 148.42859156-8.62800187 12.13312781-29.38913062 19.54781625-40.44375844 5.25768844-73.87726406-95.04283125-171.34672125-143.17090312-289.71211875-153.955905-20.49150375-1.887375-30.73725562-20.35669125-22.24406718-39.0956325l117.69133593-261.26667656c5.66212594-12.67237781 16.58194031-15.50344031 26.55806813-12.40275188 2.157 0.269625 4.04437594 0.6740625 5.93175094 1.2133125 120.52239844 24.67069219 239.69667187 24.67069219 363.58938375-0.808875 10.51537688-2.157 24.13144219 0.9436875 29.11950562 11.99831438 39.230445 87.22370437 78.46089 174.31259625 117.691335 261.53630156 8.08875187 18.46931625-1.887375 37.4778825-22.37887969 39.0956325z m-132.65552531-258.16598813c-118.09577344 21.70481719-232.68642 21.70481719-350.78219344 1e-8-31.54613156 70.23732656-63.22707469 140.33983969-94.77320625 210.57716625 106.09745812 16.31231531 197.50035094 60.26119969 269.6250525 141.95759062 70.10251406-82.50526594 164.33646938-127.12821188 270.56874094-142.22721563l-94.63839375-210.30754125zM707.41075719 25.73571093999999c-134.40808875 35.86013156-265.31105156 36.9386325-399.71914125 0-31.95056906-8.76281437-18.46931625-58.91307375 13.75087781-50.15025938 125.64527437 34.64681906 246.57211031 33.56831906 372.21738563 0 32.22019406-8.49318938 45.83625937 41.65707094 13.75087781 50.15025938z m0 0M106.14688906 520.4976825m-51.22875937 0a51.22876031 51.22876031 0 1 1 102.45751969 0 51.22876031 51.22876031 0 1 1-102.45751969 0ZM504.38309188 720.55947188m-54.46426032 0a54.46426031 54.46426031 0 1 1 108.92852156 0 54.46426031 54.46426031 0 1 1-108.92852156 0ZM910.03398406 518.0710575m-47.99325937 0a47.99325938 47.99325938 0 1 1 95.98651875 0 47.99325938 47.99325938 0 1 1-95.98651875 0ZM504.38309188 557.8407525l-142.76646469-115.26471-137.50877719-58.50863625 10.11093937-79.00014 74.8209525-165.81940781h388.26007594l113.24252156 243.20179781-210.30754125 86.95407938z"  horiz-adv-x="1024" />

    
    <glyph glyph-name="tongji" unicode="&#59015;" d="M478.31428584 733.46666667c-218.7 0-394.54285693-173.57142832-394.54285693-389.99999971 0-214.2 175.84285693-389.99999971 394.54285693-390.00000058 119.48571387 0 227.7 51.81428584 299.82857168 135.21428613l-299.82857168 254.74285723v389.9999997z m67.62857168 78.85714307v-390.00000059h394.4999997c0 214.2-175.84285693 389.99999971-394.4999997 390.00000059z m297.55714219-698.8285714a380.44285752 380.44285752 0 0 1 96.94285751 254.74285724h-394.4999997l297.55714219-254.74285724z"  horiz-adv-x="1024" />

    
    <glyph glyph-name="caidan" unicode="&#58922;" d="M63.580061 647.292592c-0.021489-29.744441 23.127743-53.874001 51.706639-53.895491 28.574802-0.021489 51.759851 24.071232 51.780317 53.815673v0.078794c0 29.744441-23.164582 53.863768-51.743478 53.863769s-51.743478-24.118304-51.743478-53.862745zM908.207787 593.43394h-559.717791c-28.458145 0-51.743478 24.234961-51.743478 53.858652 0 29.628808 23.290449 53.863768 51.743478 53.863768h559.717791c28.458145 0 51.743478-24.234961 51.743478-53.863768 0.005117-29.623691-23.285333-53.858652-51.743478-53.858652zM63.580061 385.098008c-0.021489-29.750581 23.127743-53.879118 51.706639-53.900608 28.574802-0.021489 51.759851 24.076348 51.780317 53.821813v0.078795c0 29.745465-23.164582 53.853535-51.743478 53.853535s-51.743478-24.108071-51.743478-53.853535zM908.207787 331.235262h-559.717791c-28.458145 0-51.743478 24.240077-51.743478 53.863769s23.290449 53.853535 51.743478 53.853535h559.717791c28.458145 0 51.743478-24.234961 51.743478-53.853535 0.005117-29.624714-23.285333-53.863768-51.743478-53.863769zM63.580061 122.140037c-0.021489-29.750581 23.127743-53.879118 51.706639-53.900607 28.574802-0.021489 51.759851 24.076348 51.780317 53.821812v0.078795c0 29.744441-23.164582 53.858652-51.743478 53.858652s-51.743478-24.114211-51.743478-53.858652zM908.207787 68.276269h-559.717791c-28.458145 0-51.743478 24.240077-51.743478 53.858652 0 29.623691 23.290449 53.858652 51.743478 53.858651h559.717791c28.458145 0 51.743478-24.234961 51.743478-53.858651 0.005117-29.618575-23.285333-53.858652-51.743478-53.858652z"  horiz-adv-x="1024" />

    
    <glyph glyph-name="erweima" unicode="&#58887;" d="M117.36826016 408.55515176l371.92033828-1e-8L489.28859844 780.47459004 117.36826016 780.47459004 117.36826016 408.55515176zM210.34901972 687.49473047l185.95971915 0-1e-8-185.95971914L210.34901972 501.53501133 210.34901972 687.49473047zM535.77897822 780.47459004l1e-8-371.92033828 371.92033828 0L907.69931562 780.47459004 535.77897822 780.47459004zM814.71855693 501.53501133L628.75883779 501.53501133 628.75883779 687.49473047l185.95971914 0L814.71855693 501.53501133zM256.83849951 548.02449112l92.97985957 0L349.81835908 641.00525068 256.83849951 641.00525068 256.83849951 548.02449112zM117.36826016-9.855566309999972l371.92033828 0L489.28859844 362.06477197000004 117.36826016 362.06477197000004 117.36826016-9.855566309999972zM210.34901972 269.0849124l185.95971915 0-1e-8-185.95971914L210.34901972 83.12519325999995 210.34901972 269.0849124zM768.22907627 641.00525068L675.24831758 641.00525068l0-92.97985956 92.97985956 0L768.22817715 641.00525068zM535.77897822-9.855566309999972l92.97985957 0L628.75883779 83.12429413999996 535.77897822 83.12429413999996 535.77897822-9.855566309999972zM628.75883779 269.0849124l0-185.95971914 92.97985958 0L721.73869737 269.0849124 628.75883779 269.0849124zM814.71855693 83.12429413999996L721.73869737 83.12429413999996 721.73869737-9.855566309999972l185.95971914 0L907.69841651 176.10505282999998 814.71855693 176.10505282999998 814.71855693 83.12429413999996zM814.71855693 269.0849124l92.97985958 0L907.69841651 362.06477197000004 814.71855693 362.06477197000004 814.71855693 269.0849124zM535.77897822 362.06477197000004l1e-8-92.97985957 92.97985956 0L628.75883779 362.06477197000004 535.77897822 362.06477197000004zM256.83849951 129.61467304999996l92.97985957 0L349.81835908 222.59453262 256.83849951 222.59453262 256.83849951 129.61467304999996z"  horiz-adv-x="1024" />

    
    <glyph glyph-name="shoucang" unicode="&#58886;" d="M709.0955 799.404c-77.436 0-149.2245-38.9745-196.92-103.0725C465.002 760.434 392.696 799.404 315.26 799.404 175.7825 799.404 62.45 675.3075 62.45 523.005c0-90.765 40.509-154.8675 73.3275-206.145 94.869-149.229 333.837-334.3455 344.088-342.0405a51.687 51.687 0 0 1 32.3055-11.2815c11.2815 0 22.563 3.591 32.3055 11.2815 10.26 7.695 248.7105 193.329 344.0925 342.0405 32.823 51.282 73.332 115.38 73.332 206.145 0.0045 152.3025-113.3235 276.399-252.8055 276.399z m114.3495-481.005c-87.6825-123.0705-273.3165-263.5785-282.5505-270.243-8.7165-6.669-18.9765-10.26-28.719-10.26-10.2555 0-19.998 3.078-28.7145 10.26-9.234 6.66-191.277 148.707-282.555 275.3685-29.2275 46.152-75.8925 103.5855-75.8925 184.6035 0 136.4085 75.8925 232.299 200.5065 232.299 69.228 0 144.612-66.15 186.6555-123.5835 42.5655 57.4335 117.432 123.5835 186.66 123.5835 125.1225 0 206.1495-95.8905 206.1495-232.299 0-81.0135-51.7995-144.09-81.54-189.729z"  horiz-adv-x="1024" />

    
    <glyph glyph-name="jian" unicode="&#58913;" d="M737.338676 416.62300201L543.137673 416.62300201l-64.730257-2e-8L284.205389 416.62300201c-17.86488 0-32.362059-14.49922601-32.36205901-32.36717501 0-17.86488 14.49820199-32.36308199 32.36205901-32.363082l194.201004 0 64.73025699 0 194.20100402 0c17.899672 0 32.365128 14.49922601 32.365128 32.363082C769.703805 402.123776 755.238348 416.62300201 737.338676 416.62300201L737.338676 416.62300201zM511.285221-62.81641798999999c-60.366879 0-118.941949 11.828396-174.09713 35.15568398-53.261041 22.530133-101.089349 54.772464-142.154627 95.83978901-41.066301 41.066301-73.311703 88.89358601-95.839789 142.15565-23.328311 55.15313401-35.156708 113.728204-35.156708 174.09713 0 60.365856 11.828396 118.94092601 35.156708 174.09713 22.52808599 53.26001801 54.773488 101.089349 95.839789 142.154627 41.06527799 41.067324 88.89358601 73.311703 142.154627 95.838765 55.155181 23.33035801 113.730251 35.157731 174.09713 35.157731 60.367903 0 118.941949-11.827373 174.09713-35.157731 53.261041-22.527063 101.08832599-54.771441 142.15565-95.838765 41.068348-41.06527799 73.311703-88.894609 95.83876499-142.154627 23.328311-55.156204 35.156708-113.730251 35.156708-174.09713 0-60.369949-11.82942-118.943996-35.156708-174.09713-22.52808599-53.262064-54.77041801-101.089349-95.83876499-142.15565-41.067324-41.067324-88.894609-73.310679-142.15565-95.83978901C630.22716999-50.98802201000001 571.653123-62.81641798999999 511.285221-62.81641798999999zM511.285221 780.158668c-218.20367401 0-395.72581001-177.521113-395.72581-395.72581001s177.522136-395.726833 395.72581-395.72683299c218.20367401 0 395.726833 177.522136 395.72683301 395.72683299S729.488895 780.158668 511.285221 780.158668z"  horiz-adv-x="1024" />

    
    <glyph glyph-name="jia" unicode="&#59360;" d="M483.875 412.125H315.125a28.125 28.125 0 0 1 0-56.25h168.75v-168.75a28.125 28.125 0 0 1 56.25 0v168.75h168.75a28.125 28.125 0 0 1 0 56.25h-168.75V580.875a28.125 28.125 0 0 1-56.25 0v-168.75z m28.125-478.125C263.459375-66 62 135.45937500000002 62 384S263.459375 834 512 834s450-201.459375 450-450-201.459375-450-450-450z"  horiz-adv-x="1024" />

    
    <glyph glyph-name="guanbi" unicode="&#58927;" d="M916.54826667-31.197866670000053a32.83626667 32.83626667 0 0 0-23.21066667 9.6256L102.67306667 769.09226667a32.768 32.768 0 1 0 46.42133333 46.42133333l790.7328-790.7328a32.90453333 32.90453333 0 0 0-23.27893333-55.97866667M125.88373333-31.197866670000053a32.768 32.768 0 0 0-23.21066666 56.04693334l790.7328 790.66453333a32.83626667 32.83626667 0 0 0 46.35306666-46.42133333L149.0944-21.572266669999976a32.768 32.768 0 0 0-23.21066667-9.6256"  horiz-adv-x="1024" />

    
    <glyph glyph-name="xiangshang1" unicode="&#58914;" d="M512 829.60546875l224.12109375-445.60546875 224.12109375-445.60546875H63.7578125l224.12109375 445.60546875z"  horiz-adv-x="1024" />

    
    <glyph glyph-name="shuoming" unicode="&#58928;" d="M520.761-62.323h-18.657c-242.505 0-439.087 195.581-439.087 436.85v18.599c0 241.268 196.582 436.85 439.087 436.85h18.657c242.504 0 439.122-195.582 439.122-436.85v-18.599c0-241.269-196.618-436.85-439.122-436.85z m31.107 672.091c-8.091 8.013-18.177 11.358-28.929 11.358-11.452 0-20.836-3.345-28.926-11.358-8.054-8.05-12.119-18.084-12.119-28.781 0-11.358 4.064-20.73 12.119-28.779 8.091-8.013 17.475-12.021 28.926-12.021 10.752 0 20.838 4.007 28.929 12.021 7.389 8.049 11.416 17.421 11.416 28.779 0.001 10.697-4.027 20.731-11.416 28.781z m34.95-437.658c-13.448 8.712-22.869 18.745-26.232 26.759-2.658 8.71-4.691 25.435-4.691 46.202V477.923l-94.171-24.076v-12.717c11.452-8.711 19.506-17.386 23.533-26.759 4.729-12.056 7.426-30.801 7.426-54.216v-115.084c0-20.767-2.033-37.492-5.394-46.202-3.361-8.013-12.118-18.047-25.565-26.759v-13.379h125.094V172.11z"  horiz-adv-x="1024" />

    
    <glyph glyph-name="xiala" unicode="&#59007;" d="M929.56626489 622.60929422c-13.2560719 13.2560719-33.14017975 19.88410785-53.02428761 19.88410786l-729.08395456-6.62803595c-19.88410785 0-39.7682157-6.62803595-53.02428761-19.88410786-26.51214381-26.51214381-26.51214381-72.90839547 0-99.42053925l364.54197728-364.54197729c6.62803595-6.62803595 13.2560719-6.62803595 19.88410786-13.2560719l6.62803594-6.62803596c26.51214381-6.62803595 59.65232355-6.62803595 79.53643142 13.25607191L922.93822894 516.5607190200001c33.14017975 33.14017975 33.14017975 79.53643141 6.62803595 106.0485752z m0 0"  horiz-adv-x="1024" />

    
    <glyph glyph-name="pailie" unicode="&#58907;" d="M424.2 416.9H160.8c-42.4 0-76.8 34.5-76.8 76.8V757.1c0 42.4 34.5 76.8 76.8 76.8h263.4c42.4 0 76.8-34.5 76.8-76.8v-263.4c0-42.3-34.4-76.8-76.8-76.8zM160.8 768.1c-6 0-11-4.9-11-11v-263.4c0-6 4.9-11 11-11h263.4c6 0 11 4.9 11 11V757.1c0 6-4.9 11-11 11H160.8zM424.2-65.9H160.8c-42.4 0-76.8 34.5-76.8 76.8V274.3c0 42.4 34.5 76.8 76.8 76.8h263.4c42.4 0 76.8-34.5 76.8-76.8v-263.4c0-42.4-34.4-76.8-76.8-76.8zM160.8 285.2c-6 0-11-4.9-11-11v-263.4c0-6 4.9-11 11-11h263.4c6 0 11 4.9 11 11V274.3c0 6-4.9 11-11 11H160.8zM907.1 680.3H643.7c-18.2 0-32.9 14.7-32.9 32.9s14.7 32.9 32.9 32.9h263.4c18.2 0 32.9-14.7 32.9-32.9s-14.8-32.9-32.9-32.9zM907.1 504.7H643.7c-18.2 0-32.9 14.7-32.9 32.9s14.7 32.9 32.9 32.9h263.4c18.2 0 32.9-14.7 32.9-32.9s-14.8-32.9-32.9-32.9zM907.1 21.9H643.7c-18.2 0-32.9 14.7-32.9 32.9s14.7 32.9 32.9 32.9h263.4c18.2 0 32.9-14.7 32.9-32.9s-14.8-32.9-32.9-32.9zM907.1 197.4H643.7c-18.2 0-32.9 14.7-32.9 32.9s14.7 32.9 32.9 32.9h263.4c18.2 0 32.9-14.7 32.9-32.9s-14.8-32.9-32.9-32.9z"  horiz-adv-x="1024" />

    
    <glyph glyph-name="fenxiang" unicode="&#58883;" d="M917.00004395 350.67714844v-259.06464844a112.56767578 112.56767578 0 0 0-112.50000001-112.6125H219.50004394a112.5 112.5 0 0 0-112.5 112.5V676.5c0 62.16767578 50.26464844 112.5 112.3875 112.5h177.81767578a22.5 22.5 0 0 1 0 45H219.38754395A157.3875 157.3875 0 0 1 62.00004395 676.5v-585A157.5 157.5 0 0 1 219.50004394-66h585c86.9625 0 157.5 70.56035156 157.5 157.6125V350.67714844a22.5 22.5 0 0 1-45 0zM905.75004395 721.5c-310.65820313 0-562.5-251.84179688-562.5-562.5a22.5 22.5 0 0 1 45 0c0 285.81767578 231.68232422 517.5 517.5 517.5a22.5 22.5 0 0 1 0 45zM694.90219238 779.36982422l225.00000001-90a22.5 22.5 0 0 1 16.69570311 41.76035156l-224.99999999 90a22.5 22.5 0 0 1-16.69570313-41.76035156zM772.86469239 527.7301757800001l171.06767577 166.3875a22.5 22.5 0 1 1-31.36464844 32.26464844L741.50004394 559.99482422a22.5 22.5 0 1 1 31.36464845-32.26464844z"  horiz-adv-x="1024" />

    
    </font>
</defs>
</svg>
